<?xml version="1.0" standalone="no"?>
<!DOCTYPE svg PUBLIC "-//W3C//DTD SVG 1.1//EN" "http://www.w3.org/Graphics/SVG/1.1/DTD/svg11.dtd" >
<svg xmlns="http://www.w3.org/2000/svg" xmlns:xlink="http://www.w3.org/1999/xlink" version="1.1">
<metadata>
Created by FontForge 20200427 at Wed Apr 17 19:02:25 2019
 By www
Copyright (c) 2018 ParaType Inc., ParaType Ltd. All rights reserved.
</metadata>
<defs>
<font id="SBSansText-Bold" horiz-adv-x="450" >
  <font-face 
    font-family="SB Sans Text"
    font-weight="700"
    font-stretch="normal"
    units-per-em="1000"
    panose-1="2 11 8 3 4 5 4 2 2 4"
    ascent="801"
    descent="-199"
    x-height="540"
    cap-height="700"
    bbox="-404 -264 1418 977"
    underline-thickness="50"
    underline-position="-225"
    unicode-range="U+000D-FEFF"
  />
<missing-glyph horiz-adv-x="500" 
d="M442 8v496h-384v-496h384zM50 512h400v-512h-400v512z" />
    <glyph glyph-name="f_f" unicode="ff" horiz-adv-x="817" 
d="M484 407h-200v-407h-160v407h-91v133h92v47q0 48 10.5 82t34.5 56t62.5 32t94.5 10q41 0 65 -3t45 -8v-133q-9 3 -27 6.5t-51 3.5q-39 0 -57 -11.5t-18 -51.5v-30h201v47q0 48 10.5 82t34.5 56t62.5 32t94.5 10q41 0 65 -3t45 -8v-133q-9 3 -27 6.5t-51 3.5
q-39 0 -57 -11.5t-18 -51.5v-30h147v-133h-147v-407h-160v407z" />
    <glyph glyph-name="fi" unicode="fi" horiz-adv-x="723" 
d="M472 699q0 33 21 54.5t69 21.5q51 0 71.5 -21.5t20.5 -54.5q0 -32 -20.5 -55t-71.5 -23q-49 0 -69.5 23t-20.5 55zM125 587q0 48 10.5 82t34.5 56t62 32t92 10q27 0 50.5 -3.5t40.5 -5.5v-133q-11 2 -25.5 5t-33.5 3q-37 0 -54 -11.5t-18 -51.5v-30h361v-540h-160v407
h-201v-407h-160v407h-91v133h92v47z" />
    <glyph glyph-name="fl" unicode="fl" horiz-adv-x="783" 
d="M125 588q0 48 11 82t35 55.5t62.5 31.5t93.5 10q54 0 89.5 -2.5t68.5 -4.5h159v-587q0 -32 12 -42.5t40 -10.5q16 0 31 3t27 6v-128q-12 -5 -37 -10t-60 -5q-41 0 -73 7.5t-54 25.5t-33.5 49t-11.5 78v481q-28 2 -58.5 4t-66.5 2q-39 0 -57 -11t-19 -51v-31h126v-133
h-126v-407h-160v407h-91v133h92v48z" />
    <glyph glyph-name="f_f_i" unicode="ffi" horiz-adv-x="1083" 
d="M124 407h-91v133h92v47q0 48 10.5 82t34.5 56t62.5 32t94.5 10q41 0 65 -3t45 -8v-133q-9 3 -27 6.5t-51 3.5q-39 0 -57 -11.5t-18 -51.5v-30h201v47q0 48 10.5 82t34.5 56t62 32t92 10q27 0 50.5 -3.5t40.5 -5.5v-133q-11 2 -25.5 5t-33.5 3q-37 0 -54 -11.5t-18 -51.5
v-30h361v-540h-160v407h-201v-407h-160v407h-200v-407h-160v407zM832 699q0 33 21 54.5t69 21.5q51 0 71.5 -21.5t20.5 -54.5q0 -32 -20.5 -55t-71.5 -23q-49 0 -69.5 23t-20.5 55z" />
    <glyph glyph-name="f_f_l" unicode="ffl" horiz-adv-x="1143" 
d="M124 407h-91v133h92v47q0 48 10.5 82t34.5 56t62.5 32t94.5 10q41 0 65 -3t45 -8v-133q-9 3 -27 6.5t-51 3.5q-39 0 -57 -11.5t-18 -51.5v-30h201v47q0 48 11 82t35 56t62.5 32t93.5 10q54 0 89.5 -2.5t68.5 -4.5h159v-583q0 -32 12 -42.5t40 -10.5q16 0 31 3t27 6v-128
q-12 -5 -37 -10t-60 -5q-41 0 -73 7.5t-54 25.5t-33.5 49t-11.5 78v477q-28 2 -58.5 4t-66.5 2q-39 0 -57 -11.5t-19 -51.5v-30h126v-133h-126v-407h-160v407h-200v-407h-160v407z" />
    <glyph glyph-name=".notdef" horiz-adv-x="500" 
d="M442 8v496h-384v-496h384zM50 512h400v-512h-400v512z" />
    <glyph glyph-name=".null" horiz-adv-x="0" 
 />
    <glyph glyph-name=".null" horiz-adv-x="0" 
 />
    <glyph glyph-name="uni000D" unicode="&#xd;" horiz-adv-x="250" 
 />
    <glyph glyph-name="space" unicode=" " horiz-adv-x="260" 
 />
    <glyph glyph-name="exclam" unicode="!" horiz-adv-x="398" 
d="M110 76q0 42 23.5 66t73.5 24q47 0 72.5 -25t25.5 -65t-24.5 -64.5t-73.5 -24.5q-47 0 -72 25t-25 64zM123 700h167l-12 -454h-142z" />
    <glyph glyph-name="quotedbl" unicode="&#x22;" horiz-adv-x="541" 
d="M104 700h116v-281h-116v281zM321 700h116v-281h-116v281z" />
    <glyph glyph-name="numbersign" unicode="#" horiz-adv-x="687" 
d="M130 183h-106l22 104h103l27 128h-104l22 105h101l34 180h121l-35 -180h120l34 180h121l-35 -180h109l-22 -105h-106l-27 -128h106l-22 -104h-102l-35 -183h-120l35 183h-120l-35 -183h-121zM389 287l27 128h-120l-27 -128h120z" />
    <glyph glyph-name="dollar" unicode="$" horiz-adv-x="633" 
d="M405 194q0 30 -25.5 46.5t-63.5 29t-83 26.5t-83 39t-63.5 66.5t-25.5 108.5q0 81 45.5 133t153.5 66v91h124v-89q51 -3 93 -11.5t71 -20.5v-161q-38 26 -91 43.5t-110 17.5q-36 0 -59 -5t-36.5 -14t-19 -21t-5.5 -26q0 -29 26.5 -45t66 -28.5t86 -26t86 -39t66 -66.5
t26.5 -108q0 -86 -47.5 -139t-152.5 -68v-113h-124v108q-59 3 -111 15.5t-85 31.5v167q13 -12 34 -26t49 -26t63 -20.5t77 -8.5q63 0 90.5 20t27.5 53z" />
    <glyph glyph-name="percent" unicode="%" horiz-adv-x="957" 
d="M675 700h106l-496 -700h-107zM517 159q0 88 50 130.5t141 42.5t138 -42.5t47 -130.5q0 -47 -13.5 -80t-38.5 -54t-60 -30.5t-78 -9.5q-88 0 -137 42.5t-49 131.5zM786 159q0 45 -20 64.5t-61 19.5q-40 0 -60 -19.5t-20 -64.5t21 -65t60 -20q38 0 59 19.5t21 65.5zM64 539
q0 88 50 131t140 43q92 0 139 -43t47 -131q0 -46 -13.5 -79t-38.5 -54t-60.5 -31t-78.5 -10q-88 0 -136.5 42.5t-48.5 131.5zM332 539q0 45 -19.5 64.5t-60.5 19.5q-40 0 -60.5 -19.5t-20.5 -64.5t21.5 -64.5t59.5 -19.5q39 0 59.5 19t20.5 65z" />
    <glyph glyph-name="ampersand" unicode="&#x26;" horiz-adv-x="883" 
d="M775 490q0 -89 -30 -177.5t-85 -160.5q35 -13 69 -18.5t67 -2.5v-136q-60 -4 -122 15t-113 54q-44 -37 -100.5 -58t-116.5 -21q-134 0 -202 57t-68 162q0 72 39 124.5t113 87.5q-20 34 -31 69.5t-11 68.5q0 80 50.5 119.5t140.5 39.5q56 0 93 -12t58.5 -32t30.5 -47
t9 -57q0 -38 -14.5 -67t-39 -51t-58.5 -39t-73 -32q35 -51 77.5 -93.5t98.5 -78.5q40 52 60.5 125t21.5 161h136zM458 135q-56 42 -99.5 92t-75.5 102q-36 -17 -51.5 -44t-15.5 -59q0 -61 34.5 -89.5t104.5 -28.5q31 0 57 7.5t46 19.5zM331 463q52 21 79 41t27 51
q0 23 -14 36t-50 13q-65 0 -65 -65q0 -17 5.5 -36.5t17.5 -39.5z" />
    <glyph glyph-name="quotesingle" unicode="'" horiz-adv-x="323" 
d="M104 700h116v-281h-116v281z" />
    <glyph glyph-name="parenleft" unicode="(" horiz-adv-x="385" 
d="M290 -194q-40 26 -81.5 71t-76 106.5t-56.5 138.5t-22 167q0 83 20.5 159t54 139t75.5 111t86 76l68 -65q-32 -33 -61 -76t-50.5 -95.5t-34.5 -114.5t-13 -133q0 -69 13.5 -131t35.5 -115t50.5 -96.5t58.5 -75.5z" />
    <glyph glyph-name="parenright" unicode=")" horiz-adv-x="385" 
d="M96 774q40 -26 81.5 -71.5t76 -107t56.5 -138.5t22 -167q0 -83 -20.5 -158.5t-54 -138.5t-76 -111t-85.5 -76l-68 65q32 33 61 76t50.5 95.5t34.5 114.5t13 133q0 69 -13.5 131t-35.5 115t-50.5 96.5t-58.5 75.5z" />
    <glyph glyph-name="asterisk" unicode="*" horiz-adv-x="570" 
d="M218 468l-148 29l34 115l141 -63l-19 151h119l-19 -150l140 62l33 -115l-147 -29l106 -113l-97 -66l-76 131l-76 -131l-97 66z" />
    <glyph glyph-name="plus" unicode="+" horiz-adv-x="633" 
d="M82 392h174v174h121v-174h173v-120h-173v-174h-121v174h-174v120z" />
    <glyph glyph-name="comma" unicode="," horiz-adv-x="382" 
d="M47 -103q54 8 91 33t43 59q-52 0 -75.5 25t-23.5 64q0 43 25.5 66.5t76.5 23.5q60 0 87 -31t27 -95q0 -48 -13.5 -87t-37.5 -69t-56.5 -49.5t-70.5 -27.5l-73 88v0z" />
    <glyph glyph-name="hyphen" unicode="-" horiz-adv-x="494" 
d="M87 346h320v-121h-320v121z" />
    <glyph glyph-name="period" unicode="." horiz-adv-x="364" 
d="M84 84q0 47 22.5 71.5t74.5 24.5t76 -22.5t24 -73.5q0 -45 -23 -71t-77 -26q-52 0 -74.5 26t-22.5 71z" />
    <glyph glyph-name="slash" unicode="/" horiz-adv-x="412" 
d="M275 760h130l-268 -940h-130z" />
    <glyph glyph-name="zero" unicode="0" horiz-adv-x="633" 
d="M47 349q0 96 16.5 165t50 113t84.5 64.5t121 20.5q73 0 124 -21.5t82.5 -66t45.5 -113t14 -162.5q0 -98 -16.5 -167t-49.5 -112.5t-83.5 -63t-118.5 -19.5q-142 0 -206 88.5t-64 273.5zM211 347q0 -119 23 -172.5t86 -53.5q30 0 50 12t31.5 38.5t16 69.5t4.5 105
q0 63 -4 107t-16 72t-33 41t-54 13t-53 -13.5t-31.5 -42t-15.5 -72.5t-4 -104z" />
    <glyph glyph-name="one" unicode="1" horiz-adv-x="633" 
d="M82 135h208v389l-208 -117v145l257 150h112v-567h120v-135h-489v135z" />
    <glyph glyph-name="two" unicode="2" horiz-adv-x="633" 
d="M57 104q60 47 118.5 90t104.5 85t74 86t28 92q0 57 -27.5 82.5t-91.5 25.5q-58 0 -106.5 -19t-87.5 -52v174q42 20 100 32t129 12q76 0 126 -16t80 -44t42 -66.5t12 -83.5q0 -60 -20 -108t-55.5 -90t-84.5 -81t-107 -80h275v-143h-509v104z" />
    <glyph glyph-name="three" unicode="3" horiz-adv-x="633" 
d="M194 418h69q69 0 94 19.5t25 62.5q0 17 -5 30t-17.5 21.5t-35.5 13t-59 4.5q-55 0 -107.5 -16.5t-92.5 -42.5v158q24 9 53.5 17t61 14t64 9.5t62.5 3.5q74 0 122 -12.5t76 -36t39 -57t11 -75.5q0 -65 -33.5 -106.5t-105.5 -61.5q85 -11 123.5 -53.5t38.5 -109.5
q0 -49 -14.5 -88t-48 -66.5t-88.5 -42.5t-136 -15q-65 0 -127.5 12t-107.5 32v165q40 -28 96.5 -46.5t117.5 -18.5q42 0 68.5 5.5t41.5 16t20.5 25.5t5.5 35q0 18 -5.5 32.5t-19.5 24t-39.5 14.5t-65.5 5h-81v128z" />
    <glyph glyph-name="four" unicode="4" horiz-adv-x="633" 
d="M33 244l284 456h207v-403h83v-143h-83v-154h-162v154h-329v90zM364 545l-151 -249h151v249z" />
    <glyph glyph-name="five" unicode="5" horiz-adv-x="633" 
d="M102 700h436v-135h-313l-10 -121q19 3 49.5 4.5t59.5 1.5q69 0 115.5 -15t74.5 -42.5t40 -68t12 -91.5q0 -57 -14 -102t-47.5 -77t-90.5 -49t-142 -17q-45 0 -100.5 8t-103.5 25v161q15 -9 37 -18t48 -16.5t54.5 -12t57.5 -4.5q77 0 107 25t30 76q0 25 -6.5 43.5
t-23 30.5t-45 18t-73.5 6q-23 0 -48 -1.5t-49 -3.5t-45 -5t-35 -6z" />
    <glyph glyph-name="six" unicode="6" horiz-adv-x="633" 
d="M326 -12q-81 0 -136 22t-89 65t-48.5 106.5t-14.5 146.5q0 191 82 287.5t259 96.5q48 0 91 -7.5t78 -19.5v-159q-26 17 -66.5 31.5t-106.5 14.5q-40 0 -75 -11.5t-61.5 -35t-42 -59t-15.5 -84.5q0 -8 0.5 -12.5t0.5 -8.5q30 48 75.5 72t114.5 24q115 0 167.5 -58.5
t52.5 -160.5q0 -130 -69.5 -190t-196.5 -60zM205 261q-2 -75 28 -109t87 -34q48 0 77 25.5t29 85.5q0 61 -23.5 86.5t-79.5 25.5t-82 -24t-36 -56z" />
    <glyph glyph-name="seven" unicode="7" horiz-adv-x="633" 
d="M404 555h-350v145h533v-96l-266 -604h-175z" />
    <glyph glyph-name="eight" unicode="8" horiz-adv-x="633" 
d="M37 193q0 33 6.5 61t22 50.5t42 39.5t66.5 28q-66 19 -93 55.5t-27 101.5q0 43 14.5 77t46.5 58t82 36.5t122 12.5q138 0 197.5 -45t59.5 -131q0 -30 -5 -55.5t-18.5 -46t-36 -36.5t-57.5 -27q40 -9 66.5 -24t42 -37t22 -50t6.5 -64q0 -47 -15 -85.5t-48.5 -66t-86 -42.5
t-127.5 -15q-76 0 -129.5 13.5t-87.5 39.5t-49.5 64t-15.5 88zM204 218q0 -57 31 -80t85 -23t82 24.5t28 78.5q0 95 -113 95q-57 0 -85 -25.5t-28 -69.5zM213 500q0 -43 25 -65t79 -22q55 0 77.5 23t22.5 65q0 46 -22.5 65.5t-79.5 19.5q-56 0 -79 -21.5t-23 -64.5z" />
    <glyph glyph-name="nine" unicode="9" horiz-adv-x="633" 
d="M304 712q81 0 136 -22t89 -65t48.5 -106.5t14.5 -146.5q0 -191 -82 -287.5t-259 -96.5q-48 0 -91 7.5t-78 19.5v159q26 -17 66.5 -31.5t106.5 -14.5q40 0 75 11.5t61.5 35t42 59t15.5 84.5q0 8 -0.5 12.5t-0.5 8.5q-30 -48 -75 -72t-114 -24q-114 0 -167.5 58.5
t-53.5 160.5q0 130 69 190t197 60zM425 442q2 72 -28 106t-87 34q-48 -1 -76.5 -26t-29.5 -85q-1 -58 24 -85t80 -27q56 0 82 24t35 59z" />
    <glyph glyph-name="colon" unicode=":" horiz-adv-x="364" 
d="M91 84q0 47 22.5 71.5t74.5 24.5t76 -22.5t24 -73.5q0 -45 -23 -71t-77 -26q-52 0 -74.5 26t-22.5 71zM91 428q0 47 22.5 71.5t74.5 24.5t76 -22.5t24 -73.5q0 -45 -23 -71t-77 -26q-52 0 -74.5 26t-22.5 71z" />
    <glyph glyph-name="semicolon" unicode=";" horiz-adv-x="382" 
d="M93 427q0 47 22.5 71.5t74.5 24.5t76 -22.5t24 -73.5q0 -45 -23 -71t-77 -26q-52 0 -74.5 26t-22.5 71zM54 -103q54 8 91 33t43 59q-52 0 -75.5 25t-23.5 64q0 43 25.5 66.5t76.5 23.5q60 0 87 -31t27 -95q0 -48 -13.5 -87t-37.5 -69t-56.5 -49.5t-70.5 -27.5l-73 88v0z
" />
    <glyph glyph-name="less" unicode="&#x3c;" horiz-adv-x="593" 
d="M56 377l465 170v-123l-311 -102v-2l311 -102v-123l-465 170v112z" />
    <glyph glyph-name="equal" unicode="=" horiz-adv-x="596" 
d="M63 281h470v-118h-470v118zM63 495h470v-118h-470v118z" />
    <glyph glyph-name="greater" unicode="&#x3e;" horiz-adv-x="593" 
d="M73 218l310 102v2l-310 102v123l464 -170v-112l-464 -170v123z" />
    <glyph glyph-name="question" unicode="?" horiz-adv-x="576" 
d="M175 241q0 43 13 72t32 50t42 36t42 30t32 33t13 44q0 65 -96 65q-54 0 -99 -16t-77 -39v163q33 14 83.5 23.5t118.5 9.5q240 0 240 -179q0 -49 -15 -82t-37 -56t-48 -39.5t-48 -32.5t-37 -35t-15 -47h-144zM150 76q0 42 23.5 66t73.5 24q47 0 72.5 -25t25.5 -65
t-24.5 -64.5t-73.5 -24.5q-47 0 -72 25t-25 64z" />
    <glyph glyph-name="at" unicode="@" horiz-adv-x="986" 
d="M703 64q-59 0 -87 21.5t-39 65.5q-13 -45 -46.5 -66t-81.5 -21q-80 0 -121 52t-41 173q0 116 43.5 171.5t128.5 55.5q48 0 71.5 -20t33.5 -42l10 52h107v-291q0 -35 10.5 -49t32.5 -14q18 0 35 9t30.5 29t21.5 51.5t8 77.5q0 70 -19.5 126t-58 95t-96.5 60t-136 21
q-87 0 -149.5 -26t-103 -71.5t-60 -107t-19.5 -133.5q0 -62 17 -120.5t56 -105t103.5 -74.5t159.5 -28q24 0 50 3t51 9t47.5 15t40.5 20v-100q-45 -16 -91 -24.5t-98 -8.5q-109 0 -190.5 32t-135.5 87.5t-80.5 131.5t-26.5 163t27 164.5t81 135t135 91.5t188 34
q91 0 165.5 -26t126.5 -75.5t80.5 -120.5t28.5 -161q0 -123 -55 -192t-154 -69zM415 292q0 -71 14.5 -102t56.5 -31q35 0 51 27.5t16 78.5v54q0 57 -16.5 79.5t-49.5 22.5q-39 0 -55.5 -29t-16.5 -100z" />
    <glyph glyph-name="A" unicode="A" horiz-adv-x="707" 
d="M478 147h-256l-48 -147h-163l246 700h194l245 -700h-168zM267 282h166l-83 249z" />
    <glyph glyph-name="B" unicode="B" horiz-adv-x="693" 
d="M91 699q77 3 139.5 4.5t116.5 1.5q81 0 133.5 -10t83.5 -32t43.5 -56.5t12.5 -83.5q0 -128 -128 -157q79 -5 116 -45.5t37 -114.5q0 -56 -14.5 -96.5t-51 -66.5t-98.5 -38t-156 -12q-43 0 -101 2t-133 6v698zM255 132q23 -2 45 -2.5t46 -0.5q40 0 65.5 4.5t40 15t20 26.5
t5.5 40t-6 40t-20 25.5t-37.5 13.5t-58.5 4h-100v-166zM363 411q55 0 75.5 20t20.5 60q0 23 -4.5 38t-16.5 24t-32.5 13t-53.5 4q-24 0 -46.5 -0.5t-50.5 -2.5v-156h108z" />
    <glyph glyph-name="C" unicode="C" horiz-adv-x="656" 
d="M595 515q-31 18 -74.5 34t-111.5 16q-47 0 -82 -11t-58 -36t-34 -65.5t-11 -99.5q0 -62 12 -104t36 -67.5t60 -36t85 -10.5q66 0 113 17t73 36v-163q-27 -13 -77.5 -25.5t-121.5 -12.5q-94 0 -161 21.5t-110 65.5t-63 111t-20 159q0 94 20.5 163.5t63.5 115.5t110 68
t161 22q71 0 118 -11.5t72 -19.5v-167z" />
    <glyph glyph-name="D" unicode="D" horiz-adv-x="753" 
d="M91 699q31 2 59 3.5t56 2t58.5 1t67.5 0.5q107 0 178.5 -22.5t114 -65.5t60.5 -106t18 -145q0 -95 -22.5 -165.5t-70 -116.5t-121 -68.5t-174.5 -22.5q-33 0 -61 0.5t-54 1.5t-52.5 2.5t-56.5 3.5v697zM255 139q18 -2 33.5 -3t34.5 -1q56 0 96 12.5t65.5 39.5t37.5 69.5
t12 101.5q0 55 -10.5 94.5t-34 64.5t-61.5 36.5t-93 11.5q-23 0 -41.5 -1t-38.5 -3v-422z" />
    <glyph glyph-name="E" unicode="E" horiz-adv-x="636" 
d="M91 700h488v-142h-324v-138h285v-132h-285v-146h324v-142h-488v700z" />
    <glyph glyph-name="F" unicode="F" horiz-adv-x="613" 
d="M91 700h468v-142h-304v-155h291v-142h-291v-261h-164v700z" />
    <glyph glyph-name="G" unicode="G" horiz-adv-x="717" 
d="M390 395h270v-355q-17 -9 -42 -18t-57.5 -17t-72 -13t-83.5 -5q-183 0 -269 85t-86 272q0 94 20.5 163.5t65 115.5t115 68t170.5 22q74 0 121 -10t71 -21v-157q-36 22 -81 34.5t-100 12.5q-58 0 -98.5 -12.5t-66 -38.5t-37 -68t-11.5 -100q0 -122 48 -173.5t151 -51.5
q34 0 57.5 4t41.5 9v122h-127v132z" />
    <glyph glyph-name="H" unicode="H" horiz-adv-x="803" 
d="M91 700h164v-272h293v272h164v-700h-164v286h-293v-286h-164v700z" />
    <glyph glyph-name="I" unicode="I" horiz-adv-x="349" 
d="M93 700h163v-700h-163v700z" />
    <glyph glyph-name="J" unicode="J" horiz-adv-x="462" 
d="M207 700h164v-486q0 -60 -11.5 -102t-38 -68.5t-69 -39t-104.5 -12.5q-43 0 -71.5 4.5t-51.5 11.5v157q14 -11 41.5 -20.5t56.5 -9.5q45 0 64.5 20t19.5 80v465z" />
    <glyph glyph-name="K" unicode="K" horiz-adv-x="721" 
d="M91 700h164v-278h56l185 278h191l-240 -331l263 -369h-195l-201 290h-59v-290h-164v700z" />
    <glyph glyph-name="L" unicode="L" horiz-adv-x="585" 
d="M91 700h164v-550h308v-150h-472v700z" />
    <glyph glyph-name="M" unicode="M" horiz-adv-x="945" 
d="M91 700h233l154 -372l153 372h223v-700h-160v394q0 31 1.5 65t3.5 67q-14 -35 -27.5 -69t-24.5 -61l-106 -256h-135l-107 254q-11 28 -25 63t-29 70q2 -34 3.5 -67.5t1.5 -64.5v-395h-159v700z" />
    <glyph glyph-name="N" unicode="N" horiz-adv-x="800" 
d="M91 700h177l231 -366q16 -26 29 -52t26 -50q-2 26 -3.5 55t-1.5 58v355h160v-700h-171l-233 370q-16 24 -31 54t-29 57q2 -26 3.5 -54.5t1.5 -57.5v-369h-159v700z" />
    <glyph glyph-name="O" unicode="O" horiz-adv-x="793" 
d="M50 350q0 190 85.5 277t262.5 87q94 0 159.5 -21.5t106.5 -66t59.5 -113t18.5 -163.5q0 -99 -22 -168t-65.5 -112.5t-108 -63.5t-148.5 -20q-170 0 -259 86.5t-89 277.5zM224 349q0 -65 12.5 -108t35.5 -68t55.5 -35t73.5 -10t72.5 10.5t52.5 36t32 68t11 106.5t-11 107
t-33 69t-55 36.5t-76 10.5q-86 0 -128 -50.5t-42 -172.5z" />
    <glyph glyph-name="P" unicode="P" horiz-adv-x="677" 
d="M91 698q33 1 59.5 2.5t53.5 2.5t56.5 1.5t68.5 0.5q83 0 140.5 -13.5t93.5 -42.5t52.5 -75.5t16.5 -113.5q0 -136 -73 -200t-232 -64q-20 0 -36 0.5t-36 2.5v-199h-164v698zM255 334q20 -2 35.5 -2.5t36.5 -0.5q76 0 106 30t30 91q0 30 -6 52t-22 37t-42.5 22t-66.5 7
q-20 0 -35.5 -0.5t-35.5 -2.5v-233z" />
    <glyph glyph-name="Q" unicode="Q" horiz-adv-x="793" 
d="M50 350q0 190 85.5 277t262.5 87q94 0 159.5 -21.5t106.5 -66t59.5 -113t18.5 -163.5q0 -146 -48 -228t-142 -114l139 -168h-196l-118 147q-160 4 -243.5 91t-83.5 272zM224 349q0 -65 12.5 -108t35.5 -68t55.5 -35t73.5 -10t72.5 10.5t52.5 36t32 68t11 106.5t-11 107
t-33 69t-55 36.5t-76 10.5q-86 0 -128 -50.5t-42 -172.5z" />
    <glyph glyph-name="R" unicode="R" horiz-adv-x="701" 
d="M91 0v697q66 3 122 5.5t116 2.5q82 0 138 -14.5t89.5 -43t48 -72t14.5 -101.5q0 -43 -5.5 -77.5t-19 -61.5t-35.5 -47t-55 -34l171 -254h-181l-152 236h-87v-236h-164zM328 365q35 0 58.5 6t37.5 18t20 31t6 45q0 25 -5.5 43t-19.5 29.5t-38 17t-61 5.5q-22 0 -38.5 -1
t-36.5 -3v-191h77z" />
    <glyph glyph-name="S" unicode="S" horiz-adv-x="640" 
d="M409 194q0 30 -25.5 46.5t-63.5 29t-83 26.5t-83 39t-63.5 66.5t-25.5 108.5q0 47 14.5 84.5t47 64t84.5 40.5t127 14q67 0 122.5 -9.5t91.5 -24.5v-161q-38 26 -91 43.5t-110 17.5q-36 0 -59 -5t-36.5 -14t-19 -21t-5.5 -26q0 -29 26.5 -45t66 -28.5t86 -26t86 -39
t66 -66.5t26.5 -108q0 -101 -68 -157t-220 -56q-68 0 -131 13t-101 35v167q13 -12 34 -26t49 -26t63 -20.5t77 -8.5q63 0 90.5 20t27.5 53z" />
    <glyph glyph-name="T" unicode="T" horiz-adv-x="623" 
d="M230 559h-202v141h567v-141h-202v-559h-163v559z" />
    <glyph glyph-name="U" unicode="U" horiz-adv-x="755" 
d="M86 700h164v-404q0 -51 7.5 -83.5t23.5 -51t41 -25.5t60 -7q33 0 56.5 6.5t38 24.5t21.5 50t7 82v408h164v-419q0 -86 -19.5 -142.5t-57 -90t-91.5 -47.5t-123 -14q-72 0 -127 14.5t-91.5 48t-55 90t-18.5 140.5v420z" />
    <glyph glyph-name="V" unicode="V" horiz-adv-x="687" 
d="M13 700h179l158 -522l156 522h168l-225 -700h-210z" />
    <glyph glyph-name="W" unicode="W" horiz-adv-x="1016" 
d="M26 700h176l76 -379q7 -32 11 -61t9 -62q8 32 13 62t13 62l94 378h183l93 -373q8 -33 13.5 -63.5t13.5 -64.5q5 34 9.5 64t11.5 63l75 374h173l-152 -700h-208l-122 486l-123 -486h-208z" />
    <glyph glyph-name="X" unicode="X" horiz-adv-x="709" 
d="M227 359l-189 341h190l127 -234l132 234h187l-201 -338l212 -362h-193l-144 249l-137 -249h-188z" />
    <glyph glyph-name="Y" unicode="Y" horiz-adv-x="666" 
d="M252 252l-242 448h187l139 -267l134 267h186l-240 -448v-252h-164v252z" />
    <glyph glyph-name="Z" unicode="Z" horiz-adv-x="650" 
d="M47 93l332 465h-320v142h539v-93l-332 -465h338v-142h-557v93z" />
    <glyph glyph-name="bracketleft" unicode="[" horiz-adv-x="422" 
d="M87 760h287v-102h-154v-736h154v-102h-287v940z" />
    <glyph glyph-name="backslash" unicode="\" horiz-adv-x="412" 
d="M7 760h135l263 -940h-135z" />
    <glyph glyph-name="bracketright" unicode="]" horiz-adv-x="422" 
d="M47 -78h155v736h-155v102h288v-940h-288v102z" />
    <glyph glyph-name="asciicircum" unicode="^" horiz-adv-x="572" 
d="M219 700h133l185 -354h-125l-126 245l-125 -245h-125z" />
    <glyph glyph-name="underscore" unicode="_" horiz-adv-x="448" 
d="M0 -98h448v-96h-448v96z" />
    <glyph glyph-name="grave" unicode="`" horiz-adv-x="485" 
d="M252 630l-170 160h190l100 -160h-120z" />
    <glyph glyph-name="a" unicode="a" horiz-adv-x="619" 
d="M400 78q-8 -15 -23.5 -31.5t-38 -30t-52.5 -22t-68 -8.5q-48 0 -82 13t-56 35.5t-32 53.5t-10 67q0 89 57.5 126t183.5 37h110v26q0 43 -25 61.5t-90 18.5q-27 0 -54 -5t-51.5 -14t-45.5 -20t-36 -23v153q35 17 92 28t123 11q69 0 116.5 -10.5t77 -34.5t42 -62.5
t12.5 -95.5v-351h-144zM200 172q0 -27 16.5 -45.5t61.5 -18.5q59 0 85 27.5t26 68.5v29h-88q-58 0 -79.5 -13.5t-21.5 -47.5z" />
    <glyph glyph-name="b" unicode="b" horiz-adv-x="696" 
d="M76 760h159v-295q20 37 63 63t121 26q58 0 101.5 -14.5t72 -46.5t42.5 -84t14 -127q0 -154 -57.5 -225t-179.5 -71q-40 0 -69.5 7t-51 18t-36 26t-24.5 31l-5 -68h-150v760zM234 250q0 -136 126 -136q64 0 93 38t29 126q0 45 -8 73.5t-24 45t-38.5 23t-50.5 6.5
q-67 0 -96.5 -34.5t-30.5 -98.5v-43z" />
    <glyph glyph-name="c" unicode="c" horiz-adv-x="580" 
d="M519 373q-28 20 -65.5 33.5t-92.5 13.5q-75 0 -112 -32t-37 -112q0 -81 37.5 -118t127.5 -37q45 0 86.5 12.5t65.5 31.5v-141q-24 -13 -68.5 -25.5t-112.5 -12.5q-80 0 -136.5 16.5t-93.5 51.5t-54 90t-17 133q0 140 71 208.5t225 68.5q70 0 110 -10t66 -22v-149z" />
    <glyph glyph-name="d" unicode="d" horiz-adv-x="697" 
d="M465 85q-12 -21 -27 -39t-36.5 -31.5t-51 -21t-70.5 -7.5q-120 0 -176.5 66.5t-56.5 211.5t57.5 217.5t184.5 72.5q37 0 65 -5.5t48.5 -15t34.5 -22t24 -27.5v276h159v-760h-150zM338 114q67 0 95.5 37.5t27.5 98.5v51q0 60 -27.5 92.5t-95.5 32.5q-34 0 -58 -8
t-39 -26.5t-21.5 -49t-6.5 -74.5t8 -73.5t24 -47.5t39.5 -25.5t53.5 -7.5z" />
    <glyph glyph-name="e" unicode="e" horiz-adv-x="641" 
d="M208 231q2 -63 39.5 -91.5t115.5 -28.5q29 0 58 4.5t55 13t47.5 19.5t36.5 23v-136q-20 -17 -78 -33t-142 -16q-80 0 -135.5 18t-90.5 54t-51 91t-16 130q0 140 73.5 207.5t210.5 67.5q75 0 125.5 -18t82 -52t45 -81.5t13.5 -106.5v-65h-389zM328 435q-60 0 -89 -28
t-32 -85h231q1 54 -23.5 83.5t-86.5 29.5z" />
    <glyph glyph-name="f" unicode="f" horiz-adv-x="457" 
d="M124 407h-91v133h92v48q0 48 10.5 82t34.5 55.5t62.5 31.5t94.5 10q41 0 65 -3t45 -8v-133q-9 3 -27 6.5t-51 3.5q-39 0 -57 -11t-18 -51v-31h147v-133h-147v-407h-160v407z" />
    <glyph glyph-name="g" unicode="g" horiz-adv-x="697" 
d="M100 -11q25 -16 78 -33t134 -17q42 0 71 7.5t46 21.5t24.5 35.5t7.5 50.5v51q-23 -35 -66.5 -58t-112.5 -23q-119 0 -177 58t-58 193q0 146 57 212.5t184 66.5q39 0 68 -7t50 -19t35.5 -27.5t23.5 -33.5l5 73h151v-476q0 -73 -19 -122.5t-58 -79.5t-97.5 -43t-136.5 -13
q-67 0 -123.5 11t-86.5 22v150zM337 152q63 0 94 28.5t31 96.5v25q0 69 -31 96.5t-95 27.5q-63 0 -93 -31t-30 -109q0 -74 32.5 -104t91.5 -30z" />
    <glyph glyph-name="h" unicode="h" horiz-adv-x="676" 
d="M76 760h159v-295q43 89 182 89q102 0 146 -47.5t44 -152.5v-354h-159v318q0 57 -23 80.5t-80 23.5q-60 0 -85 -28.5t-25 -89.5v-304h-159v760z" />
    <glyph glyph-name="i" unicode="i" horiz-adv-x="321" 
d="M80 540h160v-540h-160v540zM161 620q-46 0 -67 20t-21 60t21 60t67 20t67 -20t21 -60t-21 -60t-67 -20z" />
    <glyph glyph-name="j" unicode="j" horiz-adv-x="327" 
d="M86 540h160v-546q0 -51 -11 -86t-32.5 -56t-53.5 -30t-75 -9q-40 0 -64 4.5t-35 9.5v131q24 -11 57 -11q29 0 41.5 12.5t12.5 42.5v538zM167 620q-46 0 -67 20t-21 60t21 60t67 20t67 -20t21 -60t-21 -60t-67 -20z" />
    <glyph glyph-name="k" unicode="k" horiz-adv-x="635" 
d="M235 760v-414h48l139 194h178l-189 -256l209 -284h-184l-153 211h-48v-211h-159v760h159z" />
    <glyph glyph-name="l" unicode="l" horiz-adv-x="374" 
d="M235 173q0 -32 12 -42.5t40 -10.5q16 0 30.5 3t26.5 6v-128q-11 -5 -36 -10t-60 -5q-41 0 -73 7.5t-54 25.5t-33.5 49t-11.5 78v614h159v-587v0z" />
    <glyph glyph-name="m" unicode="m" horiz-adv-x="972" 
d="M76 540h149l5 -82q23 51 67 73.5t103 22.5q63 0 101.5 -27t52.5 -78q22 57 67.5 81t111.5 24q88 0 129 -46t41 -137v-371h-158v327q0 51 -19 72t-68 21q-45 0 -67 -23t-22 -77v-320h-159v330q0 52 -20 71t-65 19q-46 0 -68.5 -23.5t-22.5 -75.5v-321h-158v540z" />
    <glyph glyph-name="n" unicode="n" horiz-adv-x="676" 
d="M76 540h154l5 -76q25 50 70.5 70t104.5 20q97 0 147 -45t50 -150v-359h-159v305q0 33 -5 55.5t-17 36t-32 19.5t-50 6q-59 0 -84 -29.5t-25 -87.5v-305h-159v540z" />
    <glyph glyph-name="o" unicode="o" horiz-adv-x="675" 
d="M47 271q0 144 74 213.5t219 69.5q150 0 219 -68.5t69 -215.5t-71.5 -215.5t-219.5 -68.5q-152 0 -221 70t-69 215zM211 267q0 -77 29 -115.5t99 -38.5q67 0 96 36t29 117v5q0 82 -27.5 119t-99.5 37q-71 0 -98.5 -37.5t-27.5 -118.5v-4z" />
    <glyph glyph-name="p" unicode="p" horiz-adv-x="696" 
d="M75 540h151l5 -79q23 42 68 67.5t121 25.5q61 0 104 -15.5t71 -48.5t41 -85.5t13 -125.5q0 -149 -56.5 -221t-184.5 -72q-38 0 -66 7.5t-48.5 19.5t-35 26.5t-23.5 28.5v-248h-160v720zM235 251q0 -63 29 -100t96 -37q69 0 95.5 39t26.5 125q0 80 -29 114t-94 34
q-66 0 -95 -34.5t-29 -97.5v-43z" />
    <glyph glyph-name="q" unicode="q" horiz-adv-x="697" 
d="M461 79q-23 -41 -65 -67t-113 -26q-55 0 -99 13.5t-74.5 45.5t-46.5 84.5t-16 130.5q0 79 15.5 135t46 91t76 51.5t106.5 16.5q38 0 66 -7t48.5 -19t35 -27t24.5 -31l6 70h149v-720h-159v259zM341 114q66 0 93 39t27 102v44q0 66 -31 96.5t-94 30.5q-66 0 -94.5 -37.5
t-28.5 -121.5q0 -85 31 -119t97 -34z" />
    <glyph glyph-name="r" unicode="r" horiz-adv-x="476" 
d="M76 540h148l6 -80q21 51 59.5 72.5t89.5 21.5q17 0 31 -2t28 -5v-160q-15 13 -37.5 20.5t-55.5 7.5q-60 0 -85 -30.5t-25 -96.5v-288h-159v540z" />
    <glyph glyph-name="s" unicode="s" horiz-adv-x="555" 
d="M473 386q-33 20 -73 34.5t-96 14.5q-48 0 -64.5 -10.5t-16.5 -33.5q0 -21 21 -31t52.5 -17.5t68.5 -16t68.5 -26.5t52.5 -49.5t21 -83.5q0 -44 -12 -77.5t-40.5 -56.5t-76 -35t-117.5 -12q-45 0 -96.5 7.5t-99.5 26.5v149q32 -26 82.5 -44.5t110.5 -18.5q50 0 68 13.5
t18 39.5q0 20 -21 30.5t-52.5 19t-68.5 17.5t-68.5 27.5t-52.5 49.5t-21 82q0 43 12 75t40 53t73.5 31t113.5 10q44 0 90 -7t84 -18v-143z" />
    <glyph glyph-name="t" unicode="t" horiz-adv-x="508" 
d="M129 409h-101v131h101v92l160 53v-145h167v-131h-167v-204q0 -44 16.5 -62.5t54.5 -18.5q30 0 56.5 7.5t46.5 19.5v-138q-17 -9 -55 -18t-89 -9t-87 10.5t-59 33t-33.5 58.5t-10.5 87v234z" />
    <glyph glyph-name="u" unicode="u" horiz-adv-x="676" 
d="M441 79q-28 -48 -71.5 -70.5t-110.5 -22.5q-97 0 -142.5 49.5t-45.5 155.5v349h159v-311q0 -58 22 -83.5t79 -25.5t83 28t26 88v304h159v-540h-153z" />
    <glyph glyph-name="v" unicode="v" horiz-adv-x="616" 
d="M18 540h180l114 -359l116 359h170l-207 -540h-168z" />
    <glyph glyph-name="w" unicode="w" horiz-adv-x="896" 
d="M25 540h168l73 -366l108 366h150l109 -366l73 366h164l-133 -540h-192l-98 336l-99 -336h-193z" />
    <glyph glyph-name="x" unicode="x" horiz-adv-x="609" 
d="M193 279l-165 261h180l100 -162l102 162h174l-169 -259l179 -281h-181l-112 176l-110 -176h-176z" />
    <glyph glyph-name="y" unicode="y" horiz-adv-x="602" 
d="M191 -60q22 0 35.5 12t23.5 46l-233 542h180l127 -349l100 349h164l-183 -526q-22 -63 -42.5 -103t-44 -63.5t-50 -32.5t-60.5 -9q-23 0 -47.5 3.5t-38.5 9.5l1 139q13 -7 31 -12.5t37 -5.5z" />
    <glyph glyph-name="z" unicode="z" horiz-adv-x="579" 
d="M47 99l268 309h-256v132h471v-99l-269 -308h273v-133h-487v99z" />
    <glyph glyph-name="braceleft" unicode="{" horiz-adv-x="459" 
d="M142 133q0 52 -26.5 78t-67.5 29v100q41 3 67.5 30.5t26.5 78.5v132q0 32 5 64t22.5 57.5t51.5 41.5t91 16h99v-101h-61q-45 0 -60.5 -24.5t-15.5 -69.5v-127q0 -56 -23 -94t-82 -52q58 -12 81.5 -54.5t23.5 -97.5v-124q0 -45 15.5 -70t60.5 -25h61v-101h-99
q-57 0 -91 16t-51.5 41.5t-22.5 57.5t-5 64v134z" />
    <glyph glyph-name="bar" unicode="|" horiz-adv-x="298" 
d="M81 760h136v-940h-136v940z" />
    <glyph glyph-name="braceright" unicode="}" horiz-adv-x="459" 
d="M317 447q0 -52 26.5 -78t67.5 -29v-100q-41 -3 -67.5 -30.5t-26.5 -78.5v-132q0 -32 -5 -64t-22.5 -57.5t-51.5 -41.5t-91 -16h-99v101h61q45 0 60.5 24.5t15.5 69.5v127q0 56 23 94t82 52q-29 6 -49 20t-32.5 34.5t-18 45.5t-5.5 52v124q0 45 -15.5 70t-60.5 25h-61v101
h99q57 0 91 -16t51.5 -41.5t22.5 -57.5t5 -64v-134z" />
    <glyph glyph-name="asciitilde" unicode="~" horiz-adv-x="633" 
d="M94 362q23 26 51.5 42t63.5 16q32 0 62.5 -11.5t60 -26t57.5 -26t55 -11.5q56 0 98 49v-116q-17 -20 -44.5 -35.5t-65.5 -15.5q-32 0 -61 11.5t-56 25.5t-53.5 25.5t-54.5 11.5q-16 0 -32.5 -4.5t-31.5 -11.5t-28 -17t-21 -20v114z" />
    <glyph glyph-name="uni00A0" unicode="&#xa0;" horiz-adv-x="260" 
 />
    <glyph glyph-name="exclamdown" unicode="&#xa1;" horiz-adv-x="398" 
d="M110 464q0 39 25 64t72 25q49 0 73.5 -24t24.5 -65q0 -39 -25.5 -64t-72.5 -25q-50 0 -73.5 24t-23.5 65zM278 294l12 -453h-167l13 453h142z" />
    <glyph glyph-name="cent" unicode="&#xa2;" horiz-adv-x="561" 
d="M274 -8q-57 7 -98 30.5t-67 60.5t-38 85t-12 104q0 54 13 101t39 83t66.5 59t96.5 29v96h89v-93q48 -3 77 -10.5t48 -15.5v-123q-26 10 -56 17.5t-76 7.5q-69 0 -106 -37.5t-37 -109.5q0 -76 39 -119t120 -43q40 0 71.5 8.5t51.5 19.5v-122q-19 -8 -50.5 -18t-81.5 -13
v-109h-89v112z" />
    <glyph glyph-name="sterling" unicode="&#xa3;" horiz-adv-x="599" 
d="M57 135h86v172h-86v111h86v59q0 46 13.5 89t44 75t78.5 51.5t117 19.5q78 0 153 -19v-133q-38 11 -65 14.5t-57 3.5q-63 0 -91.5 -31t-28.5 -85v-44h158v-111h-158v-172h245v-135h-495v135z" />
    <glyph glyph-name="currency" unicode="&#xa4;" horiz-adv-x="570" 
d="M31 156l61 64q-17 26 -27 58.5t-10 71.5q0 38 10.5 70.5t27.5 58.5l-62 65l63 64l63 -64q25 17 57.5 27.5t70.5 10.5q39 0 71.5 -10.5t56.5 -27.5l64 65l64 -64l-63 -66q17 -25 27.5 -58t10.5 -71t-10.5 -71t-27.5 -59l63 -64l-64 -64l-63 63q-25 -17 -58 -28t-71 -11
t-71 11t-58 28l-62 -63zM157 349q0 -29 10.5 -53t28 -41t40.5 -27.5t49 -10.5t49.5 10.5t41.5 27.5t28.5 41t10.5 53q0 28 -10.5 52.5t-28.5 42t-41.5 27.5t-49.5 10t-49 -10t-40.5 -27.5t-28 -42t-10.5 -52.5z" />
    <glyph glyph-name="yen" unicode="&#xa5;" horiz-adv-x="641" 
d="M94 224h144v41l-10 20h-134v84h92l-166 331h188l114 -258l110 258h189l-166 -331h92v-84h-134l-10 -20v-41h144v-84h-144v-140h-165v140h-144v84z" />
    <glyph glyph-name="brokenbar" unicode="&#xa6;" horiz-adv-x="306" 
d="M86 215h134v-395h-134v395zM86 760h134v-395h-134v395z" />
    <glyph glyph-name="section" unicode="&#xa7;" horiz-adv-x="545" 
d="M462 573q-55 18 -87.5 23t-60.5 5q-15 0 -30.5 -2.5t-29 -8.5t-22 -16.5t-8.5 -26.5q0 -12 5 -21t16 -17t28.5 -16.5t42.5 -20.5q8 -4 22.5 -10.5t22.5 -9.5q26 -12 52 -25.5t46.5 -31.5t33.5 -42.5t13 -57.5q0 -44 -25.5 -77t-57.5 -56q25 -18 42 -44.5t17 -66.5
q0 -36 -14.5 -67t-44.5 -54t-75.5 -36.5t-106.5 -13.5q-45 0 -88.5 6.5t-89.5 21.5v117q50 -21 86 -28t73 -7q51 0 75.5 15.5t24.5 40.5q0 15 -7 26t-20.5 20t-33 18t-45.5 20q-8 3 -23.5 10t-23.5 11q-26 11 -49.5 25t-41.5 33t-28.5 42.5t-10.5 54.5q0 41 23 74t65 56
q-63 38 -63 113q0 32 13.5 61.5t41.5 52t72 36t104 13.5q54 0 96 -8.5t71 -16.5v-114zM180 327q0 -35 29 -57t77 -42q1 -1 8 -4t15 -6.5t14.5 -6.5t8.5 -3q13 12 23.5 29t10.5 37q0 32 -25 52t-69 40q-2 1 -9.5 4.5t-16 7.5t-16.5 7.5t-10 4.5q-23 -15 -31.5 -32t-8.5 -31z
" />
    <glyph glyph-name="dieresis" unicode="&#xa8;" horiz-adv-x="485" 
d="M132 624q-45 0 -64.5 19t-19.5 57t19.5 57t64.5 19t64.5 -19t19.5 -57t-19.5 -57t-64.5 -19zM354 624q-45 0 -64.5 19t-19.5 57t19.5 57t64.5 19t64.5 -19t19.5 -57t-19.5 -57t-64.5 -19z" />
    <glyph glyph-name="copyright" unicode="&#xa9;" horiz-adv-x="856" 
d="M54 319q0 79 28.5 147.5t78.5 118.5t118.5 78.5t148.5 28.5t148.5 -28.5t118.5 -78.5t78.5 -118.5t28.5 -147.5t-28.5 -147t-78.5 -118.5t-118.5 -79t-148.5 -28.5t-148.5 28.5t-118.5 79t-78.5 118.5t-28.5 147zM134 318q0 -63 22.5 -116.5t62 -93t93 -62t115.5 -22.5
q63 0 116.5 22.5t93.5 62t62.5 93t22.5 116.5q0 64 -22.5 118t-62.5 93.5t-93.5 62t-116.5 22.5q-62 0 -115.5 -22.5t-93 -62t-62 -93.5t-22.5 -118zM541 417q-17 7 -39 10.5t-39 3.5q-54 0 -81.5 -24.5t-27.5 -81.5q0 -60 28.5 -83.5t81.5 -23.5q19 0 39 4t39 13v-88
q-16 -7 -40 -12t-57 -5q-102 0 -146.5 52t-44.5 140q0 95 47.5 145t146.5 50q30 0 54.5 -4.5t38.5 -9.5v-86z" />
    <glyph glyph-name="ordfeminine" unicode="&#xaa;" horiz-adv-x="414" 
d="M264 407h-1q-11 -21 -36.5 -40t-71.5 -19q-60 0 -91.5 28t-31.5 80q0 109 158 109q20 0 38.5 -1t29.5 -3v15q0 21 -14 33.5t-58 12.5q-33 0 -66 -8t-54 -18v91q22 8 59 16.5t81 8.5q87 0 126 -33t39 -110v-214h-107v52zM147 468q0 -16 11.5 -26t37.5 -10q32 0 47 16
t15 39v14q-10 2 -22.5 3t-27.5 1q-35 0 -48 -9t-13 -28z" />
    <glyph glyph-name="guillemotleft" unicode="&#xab;" horiz-adv-x="629" 
d="M47 269l130 216h144l-122 -216l122 -214h-145zM301 269l130 216h144l-122 -216l122 -214h-145z" />
    <glyph glyph-name="logicalnot" unicode="&#xac;" horiz-adv-x="657" 
d="M42 410h554v-274h-114v164h-440v110z" />
    <glyph glyph-name="uni00AD" unicode="&#xad;" horiz-adv-x="494" 
d="M87 346h320v-121h-320v121z" />
    <glyph glyph-name="registered" unicode="&#xae;" horiz-adv-x="605" 
d="M50 539q0 54 18.5 100t51.5 80t79.5 53.5t102.5 19.5q57 0 103.5 -19.5t79.5 -53.5t51.5 -80t18.5 -100q0 -53 -18.5 -99t-51.5 -80t-79.5 -53t-103.5 -19q-56 0 -102.5 19t-79.5 53t-51.5 80t-18.5 99zM111 539q0 -41 14 -76t39 -61t60 -40t78 -14t79 14t61 40t39 61
t14 76q0 42 -14 77t-39 61t-61 40.5t-79 14.5t-78 -14.5t-60 -40.5t-39 -61t-14 -77zM200 676h111q19 0 36.5 -4t31.5 -14t22.5 -27t8.5 -43q0 -29 -13 -48.5t-33 -27.5l62 -100h-77l-51 88h-27v-88h-71v264zM302 556q14 0 24.5 6.5t10.5 23.5q0 19 -10 24.5t-26 5.5h-32
v-60h33z" />
    <glyph glyph-name="macron" unicode="&#xaf;" horiz-adv-x="485" 
d="M73 750h340v-100h-340v100z" />
    <glyph glyph-name="degree" unicode="&#xb0;" horiz-adv-x="400" 
d="M43 552q0 37 12 66.5t33.5 50.5t50 32.5t61.5 11.5t61.5 -11t49.5 -32t33.5 -51t12.5 -67t-12 -66.5t-33 -50.5t-49.5 -32t-60.5 -11q-34 0 -63 11t-50.5 32t-33.5 50.5t-12 66.5zM136 551q0 -34 18 -51.5t47 -17.5t47 17t18 52q0 36 -18.5 53.5t-46.5 17.5
q-29 0 -47 -18t-18 -53z" />
    <glyph glyph-name="plusminus" unicode="&#xb1;" horiz-adv-x="597" 
d="M64 173h469v-119h-469v119zM64 497h176v146h118v-146h175v-119h-175v-146h-118v146h-176v119z" />
    <glyph glyph-name="twosuperior" unicode="&#xb2;" 
d="M47 481l133 80q53 33 73.5 55.5t20.5 45.5q0 20 -17 36t-65 16q-32 0 -67.5 -6t-64.5 -20v99q38 13 73.5 18t76.5 5q49 0 84 -10t56.5 -27.5t31.5 -40.5t10 -50q0 -49 -36 -91.5t-122 -85.5l-49 -27v-1h211v-96h-349v100z" />
    <glyph glyph-name="threesuperior" unicode="&#xb3;" 
d="M122 636h75q38 0 58.5 8.5t20.5 31.5q0 20 -19 30t-67 10q-36 0 -69.5 -4t-59.5 -14v93q36 12 79.5 15.5t81.5 3.5q51 0 84.5 -9.5t53.5 -25t28 -35.5t8 -40q0 -40 -26.5 -62.5t-76.5 -37.5v-1q66 -11 89.5 -38t23.5 -61q0 -54 -49.5 -90.5t-153.5 -36.5q-28 0 -68.5 3.5
t-80.5 15.5v96q38 -14 72 -17t63 -3q54 0 75.5 11.5t21.5 31.5q0 25 -18.5 35t-60.5 10h-85v80z" />
    <glyph glyph-name="acute" unicode="&#xb4;" horiz-adv-x="485" 
d="M222 790h190l-170 -160h-120z" />
    <glyph glyph-name="mu" unicode="&#xb5;" horiz-adv-x="683" 
d="M446 79q-29 -48 -72.5 -69t-112.5 -21q-24 0 -43 6v-205h-147v753h161v-313q0 -58 22.5 -82t80.5 -24t84 26.5t26 86.5v306h162v-543h-156z" />
    <glyph glyph-name="mu" unicode="&#x3bc;" horiz-adv-x="683" 
d="M446 79q-29 -48 -72.5 -69t-112.5 -21q-24 0 -43 6v-205h-147v753h161v-313q0 -58 22.5 -82t80.5 -24t84 26.5t26 86.5v306h162v-543h-156z" />
    <glyph glyph-name="paragraph" unicode="&#xb6;" horiz-adv-x="579" 
d="M228 329q-42 0 -75 13t-56.5 37t-35.5 57.5t-12 74.5q0 63 24 100.5t58.5 57t72 25.5t64.5 6h237v-910h-99v818h-78v-818h-100v539z" />
    <glyph glyph-name="periodcentered" unicode="&#xb7;" horiz-adv-x="250" 
d="M35 358q0 42 23.5 65t66.5 23q42 0 66 -23.5t24 -64.5q0 -42 -23 -65.5t-67 -23.5q-42 0 -66 24t-24 65z" />
    <glyph glyph-name="cedilla" unicode="&#xb8;" horiz-adv-x="485" 
d="M181 0h82l-11 -52q22 0 42 -5t35 -16.5t24 -29t9 -43.5q0 -48 -36.5 -78t-96.5 -30q-29 0 -55 4t-46 12l11 66q14 -5 28.5 -8.5t31.5 -3.5q23 0 38.5 11t15.5 33t-18 29.5t-40 7.5h-16t-16 -1z" />
    <glyph glyph-name="onesuperior" unicode="&#xb9;" 
d="M214 680l-109 -56l-45 81l175 95h95v-419h-116v299z" />
    <glyph glyph-name="ordmasculine" unicode="&#xba;" horiz-adv-x="425" 
d="M24 530q0 91 50 136.5t138 45.5q91 0 140 -45t49 -137q0 -91 -49 -136.5t-140 -45.5t-139.5 44t-48.5 138zM139 530q0 -50 20 -71.5t53 -21.5q36 0 55 21t19 72t-19 72t-55 21q-35 0 -54 -21t-19 -72z" />
    <glyph glyph-name="guillemotright" unicode="&#xbb;" horiz-adv-x="629" 
d="M454 55h-146l122 215l-122 215h145l129 -216zM200 55h-146l122 215l-122 215h145l129 -216z" />
    <glyph glyph-name="onequarter" unicode="&#xbc;" horiz-adv-x="950" 
d="M653 713h102l-481 -727h-103zM487 170l224 251h132v-247h58v-91h-58v-81h-112v81h-244v87zM732 328h-1l-139 -155h140v155zM187 581l-109 -56l-45 81l175 95h95v-419h-116v299z" />
    <glyph glyph-name="onehalf" unicode="&#xbd;" horiz-adv-x="950" 
d="M628 713h102l-481 -727h-103zM561 102l133 80q53 33 73.5 55.5t20.5 45.5q0 20 -17 36t-65 16q-32 0 -67.5 -6t-64.5 -20v99q38 13 73.5 18t76.5 5q49 0 84 -10t56.5 -27.5t31.5 -40.5t10 -50q0 -49 -36 -91.5t-122 -85.5l-49 -27v-1h211v-96h-349v100zM178 581l-109 -56
l-45 81l175 95h95v-419h-116v299z" />
    <glyph glyph-name="threequarters" unicode="&#xbe;" horiz-adv-x="950" 
d="M675 713h102l-481 -727h-103zM506 170l224 251h132v-247h58v-91h-58v-81h-112v81h-244v87zM751 328h-1l-139 -155h140v155zM106 537h75q38 0 58.5 8.5t20.5 31.5q0 20 -19 30t-67 10q-36 0 -69.5 -4t-59.5 -14v93q36 12 79.5 15.5t81.5 3.5q51 0 84.5 -9.5t53.5 -25
t28 -35.5t8 -40q0 -40 -26.5 -62.5t-76.5 -37.5v-1q66 -11 89.5 -38t23.5 -61q0 -54 -49.5 -90.5t-153.5 -36.5q-28 0 -68.5 3.5t-80.5 15.5v96q38 -14 72 -17t63 -3q54 0 75.5 11.5t21.5 31.5q0 25 -18.5 35t-60.5 10h-85v80z" />
    <glyph glyph-name="questiondown" unicode="&#xbf;" horiz-adv-x="576" 
d="M414 299q0 -43 -13 -72t-32 -50t-42 -36t-42 -30t-32 -33t-13 -44q0 -65 96 -65q54 0 99 16t77 39v-163q-33 -14 -83.5 -23.5t-118.5 -9.5q-240 0 -240 179q0 49 15 82t37 56t48 39.5t48 32.5t37 35t15 47h144zM439 463q0 -41 -23.5 -65t-73.5 -24q-47 0 -72 25t-25 64
q0 41 24.5 65t72.5 24q47 0 72 -24.5t25 -64.5z" />
    <glyph glyph-name="Agrave" unicode="&#xc0;" horiz-adv-x="707" 
d="M478 147h-256l-48 -147h-163l246 700h194l245 -700h-168zM267 282h166l-83 249zM414 760h-120l-160 160h192z" />
    <glyph glyph-name="Aacute" unicode="&#xc1;" horiz-adv-x="707" 
d="M478 147h-256l-48 -147h-163l246 700h194l245 -700h-168zM267 282h166l-83 249zM401 925h192l-178 -170h-122z" />
    <glyph glyph-name="Acircumflex" unicode="&#xc2;" horiz-adv-x="707" 
d="M478 147h-256l-48 -147h-163l246 700h194l245 -700h-168zM267 282h166l-83 249zM274 925h160l120 -170h-121l-78 97l-80 -97h-121z" />
    <glyph glyph-name="Atilde" unicode="&#xc3;" horiz-adv-x="707" 
d="M478 147h-256l-48 -147h-163l246 700h194l245 -700h-168zM267 282h166l-83 249zM159 780q1 32 10.5 57t25.5 41.5t36.5 25t43.5 8.5q22 0 41.5 -7.5t44.5 -18.5q13 -6 22 -10t16 -6.5t12.5 -3.5t12.5 -1q17 0 29 12t15 35l81 -13q-3 -61 -35.5 -96t-80.5 -35q-12 0 -22 1
t-19.5 4t-20.5 7.5t-25 11.5q-23 11 -35 17.5t-26 6.5t-27.5 -12.5t-17.5 -35.5z" />
    <glyph glyph-name="Adieresis" unicode="&#xc4;" horiz-adv-x="707" 
d="M478 147h-256l-48 -147h-163l246 700h194l245 -700h-168zM267 282h166l-83 249zM239 762q-45 0 -65.5 19.5t-20.5 58.5t20.5 58.5t65.5 19.5t65.5 -19.5t20.5 -58.5t-20.5 -58.5t-65.5 -19.5zM467 762q-45 0 -65.5 19.5t-20.5 58.5t20.5 58.5t65.5 19.5t65.5 -19.5
t20.5 -58.5t-20.5 -58.5t-65.5 -19.5z" />
    <glyph glyph-name="Aring" unicode="&#xc5;" horiz-adv-x="707" 
d="M478 147h-256l-48 -147h-163l246 700h194l245 -700h-168zM267 282h166l-83 249zM235 840q0 25 9 47t24.5 37.5t37 24.5t47.5 9q25 0 47 -9t37.5 -24.5t24.5 -37.5t9 -47q0 -26 -9 -47.5t-24.5 -37t-37.5 -24.5t-47 -9q-26 0 -47.5 9t-37 24.5t-24.5 37t-9 47.5zM309 840
q0 -21 12 -33t32 -12t32 12t12 33t-12 33t-32 12t-32 -12t-12 -33z" />
    <glyph glyph-name="AE" unicode="&#xc6;" horiz-adv-x="1038" 
d="M507 147h-244l-85 -147h-167l412 700h555v-142h-307v-138h272v-132h-272v-146h311v-142h-475v147zM507 288v280l-163 -280h163z" />
    <glyph glyph-name="Ccedilla" unicode="&#xc7;" horiz-adv-x="656" 
d="M333 -9q-150 14 -216.5 100.5t-66.5 252.5q0 94 20.5 163.5t63.5 115.5t110 68t161 22q71 0 118 -11.5t72 -19.5v-167q-31 18 -74.5 34t-111.5 16q-47 0 -82 -11t-58 -36t-34 -65.5t-11 -99.5q0 -62 12 -104t36 -67.5t60 -36t85 -10.5q66 0 113 17t73 36v-163
q-26 -12 -72.5 -24t-112.5 -14l-7 -41q22 0 43 -5t37 -16.5t26 -30t10 -45.5q0 -26 -11 -46.5t-30.5 -35.5t-46 -23t-57.5 -8q-34 0 -58.5 4.5t-44.5 12.5l12 69q31 -13 63 -13q24 0 41.5 10t17.5 32q0 23 -19.5 30.5t-42.5 7.5h-17t-17 -2z" />
    <glyph glyph-name="Egrave" unicode="&#xc8;" horiz-adv-x="636" 
d="M91 700h488v-142h-324v-138h285v-132h-285v-146h324v-142h-488v700zM392 760h-120l-160 160h192z" />
    <glyph glyph-name="Eacute" unicode="&#xc9;" horiz-adv-x="636" 
d="M91 700h488v-142h-324v-138h285v-132h-285v-146h324v-142h-488v700zM379 925h192l-178 -170h-122z" />
    <glyph glyph-name="Ecircumflex" unicode="&#xca;" horiz-adv-x="636" 
d="M91 700h488v-142h-324v-138h285v-132h-285v-146h324v-142h-488v700zM255 925h160l120 -170h-121l-78 97l-80 -97h-121z" />
    <glyph glyph-name="Edieresis" unicode="&#xcb;" horiz-adv-x="636" 
d="M91 700h488v-142h-324v-138h285v-132h-285v-146h324v-142h-488v700zM221 762q-45 0 -65.5 19.5t-20.5 58.5t20.5 58.5t65.5 19.5t65.5 -19.5t20.5 -58.5t-20.5 -58.5t-65.5 -19.5zM449 762q-45 0 -65.5 19.5t-20.5 58.5t20.5 58.5t65.5 19.5t65.5 -19.5t20.5 -58.5
t-20.5 -58.5t-65.5 -19.5z" />
    <glyph glyph-name="Igrave" unicode="&#xcc;" horiz-adv-x="349" 
d="M93 700h163v-700h-163v700zM236 760h-120l-160 160h192z" />
    <glyph glyph-name="Iacute" unicode="&#xcd;" horiz-adv-x="349" 
d="M93 700h163v-700h-163v700zM223 925h192l-178 -170h-122z" />
    <glyph glyph-name="Icircumflex" unicode="&#xce;" horiz-adv-x="349" 
d="M93 700h163v-700h-163v700zM95 925h160l120 -170h-121l-78 97l-80 -97h-121z" />
    <glyph glyph-name="Idieresis" unicode="&#xcf;" horiz-adv-x="349" 
d="M93 700h163v-700h-163v700zM61 762q-45 0 -65.5 19.5t-20.5 58.5t20.5 58.5t65.5 19.5t65.5 -19.5t20.5 -58.5t-20.5 -58.5t-65.5 -19.5zM289 762q-45 0 -65.5 19.5t-20.5 58.5t20.5 58.5t65.5 19.5t65.5 -19.5t20.5 -58.5t-20.5 -58.5t-65.5 -19.5z" />
    <glyph glyph-name="Eth" unicode="&#xd0;" horiz-adv-x="753" 
d="M22 415h69v284q31 2 59 3.5t56 2t58.5 1t67.5 0.5q107 0 178.5 -22.5t114 -65.5t60.5 -106t18 -145q0 -95 -22.5 -165.5t-70 -116.5t-121 -68.5t-174.5 -22.5q-33 0 -61 0.5t-54 1.5t-52.5 2.5t-56.5 3.5v292h-69v121zM255 139q18 -2 33.5 -3t34.5 -1q56 0 96 12.5
t65.5 39.5t37.5 69.5t12 101.5q0 55 -10.5 94.5t-34 64.5t-61.5 36.5t-93 11.5q-23 0 -41.5 -1t-38.5 -3v-146h162v-121h-162v-155z" />
    <glyph glyph-name="Ntilde" unicode="&#xd1;" horiz-adv-x="800" 
d="M91 700h177l231 -366q16 -26 29 -52t26 -50q-2 26 -3.5 55t-1.5 58v355h160v-700h-171l-233 370q-16 24 -31 54t-29 57q2 -26 3.5 -54.5t1.5 -57.5v-369h-159v700zM205 780q1 32 10.5 57t25.5 41.5t36.5 25t43.5 8.5q22 0 41.5 -7.5t44.5 -18.5q13 -6 22 -10t16 -6.5
t12.5 -3.5t12.5 -1q17 0 29 12t15 35l81 -13q-3 -61 -35.5 -96t-80.5 -35q-12 0 -22 1t-19.5 4t-20.5 7.5t-25 11.5q-23 11 -35 17.5t-26 6.5t-27.5 -12.5t-17.5 -35.5z" />
    <glyph glyph-name="Ograve" unicode="&#xd2;" horiz-adv-x="793" 
d="M50 350q0 190 85.5 277t262.5 87q94 0 159.5 -21.5t106.5 -66t59.5 -113t18.5 -163.5q0 -99 -22 -168t-65.5 -112.5t-108 -63.5t-148.5 -20q-170 0 -259 86.5t-89 277.5zM224 349q0 -65 12.5 -108t35.5 -68t55.5 -35t73.5 -10t72.5 10.5t52.5 36t32 68t11 106.5t-11 107
t-33 69t-55 36.5t-76 10.5q-86 0 -128 -50.5t-42 -172.5zM457 760h-120l-160 160h192z" />
    <glyph glyph-name="Oacute" unicode="&#xd3;" horiz-adv-x="793" 
d="M50 350q0 190 85.5 277t262.5 87q94 0 159.5 -21.5t106.5 -66t59.5 -113t18.5 -163.5q0 -99 -22 -168t-65.5 -112.5t-108 -63.5t-148.5 -20q-170 0 -259 86.5t-89 277.5zM224 349q0 -65 12.5 -108t35.5 -68t55.5 -35t73.5 -10t72.5 10.5t52.5 36t32 68t11 106.5t-11 107
t-33 69t-55 36.5t-76 10.5q-86 0 -128 -50.5t-42 -172.5zM444 925h192l-178 -170h-122z" />
    <glyph glyph-name="Ocircumflex" unicode="&#xd4;" horiz-adv-x="793" 
d="M50 350q0 190 85.5 277t262.5 87q94 0 159.5 -21.5t106.5 -66t59.5 -113t18.5 -163.5q0 -99 -22 -168t-65.5 -112.5t-108 -63.5t-148.5 -20q-170 0 -259 86.5t-89 277.5zM224 349q0 -65 12.5 -108t35.5 -68t55.5 -35t73.5 -10t72.5 10.5t52.5 36t32 68t11 106.5t-11 107
t-33 69t-55 36.5t-76 10.5q-86 0 -128 -50.5t-42 -172.5zM317 925h160l120 -170h-121l-78 97l-80 -97h-121z" />
    <glyph glyph-name="Otilde" unicode="&#xd5;" horiz-adv-x="793" 
d="M50 350q0 190 85.5 277t262.5 87q94 0 159.5 -21.5t106.5 -66t59.5 -113t18.5 -163.5q0 -99 -22 -168t-65.5 -112.5t-108 -63.5t-148.5 -20q-170 0 -259 86.5t-89 277.5zM224 349q0 -65 12.5 -108t35.5 -68t55.5 -35t73.5 -10t72.5 10.5t52.5 36t32 68t11 106.5t-11 107
t-33 69t-55 36.5t-76 10.5q-86 0 -128 -50.5t-42 -172.5zM202 780q1 32 10.5 57t25.5 41.5t36.5 25t43.5 8.5q22 0 41.5 -7.5t44.5 -18.5q13 -6 22 -10t16 -6.5t12.5 -3.5t12.5 -1q17 0 29 12t15 35l81 -13q-3 -61 -35.5 -96t-80.5 -35q-12 0 -22 1t-19.5 4t-20.5 7.5
t-25 11.5q-23 11 -35 17.5t-26 6.5t-27.5 -12.5t-17.5 -35.5z" />
    <glyph glyph-name="Odieresis" unicode="&#xd6;" horiz-adv-x="793" 
d="M50 350q0 190 85.5 277t262.5 87q94 0 159.5 -21.5t106.5 -66t59.5 -113t18.5 -163.5q0 -99 -22 -168t-65.5 -112.5t-108 -63.5t-148.5 -20q-170 0 -259 86.5t-89 277.5zM224 349q0 -65 12.5 -108t35.5 -68t55.5 -35t73.5 -10t72.5 10.5t52.5 36t32 68t11 106.5t-11 107
t-33 69t-55 36.5t-76 10.5q-86 0 -128 -50.5t-42 -172.5zM282 762q-45 0 -65.5 19.5t-20.5 58.5t20.5 58.5t65.5 19.5t65.5 -19.5t20.5 -58.5t-20.5 -58.5t-65.5 -19.5zM510 762q-45 0 -65.5 19.5t-20.5 58.5t20.5 58.5t65.5 19.5t65.5 -19.5t20.5 -58.5t-20.5 -58.5
t-65.5 -19.5z" />
    <glyph glyph-name="multiply" unicode="&#xd7;" horiz-adv-x="569" 
d="M202 324l-134 139l83 83l133 -137l134 137l84 -83l-135 -139l135 -138l-84 -82l-134 137l-133 -137l-83 82z" />
    <glyph glyph-name="Oslash" unicode="&#xd8;" horiz-adv-x="793" 
d="M50 350q0 190 85.5 277t262.5 87q57 0 103 -8t83 -24l49 66l72 -54l-46 -62q44 -45 63.5 -114.5t19.5 -167.5q0 -99 -22 -168t-65.5 -112.5t-108 -63.5t-148.5 -20q-114 0 -193 38l-57 -76l-73 53l58 78q-83 89 -83 271zM569 349q0 85 -20 136l-250 -335q21 -12 46.5 -17
t55.5 -5q41 0 72.5 10.5t52.5 36t32 68t11 106.5zM224 349q0 -76 17 -125l247 330q-20 10 -43 14t-51 4q-86 0 -128 -50.5t-42 -172.5z" />
    <glyph glyph-name="Ugrave" unicode="&#xd9;" horiz-adv-x="755" 
d="M86 700h164v-404q0 -51 7.5 -83.5t23.5 -51t41 -25.5t60 -7q33 0 56.5 6.5t38 24.5t21.5 50t7 82v408h164v-419q0 -86 -19.5 -142.5t-57 -90t-91.5 -47.5t-123 -14q-72 0 -127 14.5t-91.5 48t-55 90t-18.5 140.5v420zM438 760h-120l-160 160h192z" />
    <glyph glyph-name="Uacute" unicode="&#xda;" horiz-adv-x="755" 
d="M86 700h164v-404q0 -51 7.5 -83.5t23.5 -51t41 -25.5t60 -7q33 0 56.5 6.5t38 24.5t21.5 50t7 82v408h164v-419q0 -86 -19.5 -142.5t-57 -90t-91.5 -47.5t-123 -14q-72 0 -127 14.5t-91.5 48t-55 90t-18.5 140.5v420zM425 925h192l-178 -170h-122z" />
    <glyph glyph-name="Ucircumflex" unicode="&#xdb;" horiz-adv-x="755" 
d="M86 700h164v-404q0 -51 7.5 -83.5t23.5 -51t41 -25.5t60 -7q33 0 56.5 6.5t38 24.5t21.5 50t7 82v408h164v-419q0 -86 -19.5 -142.5t-57 -90t-91.5 -47.5t-123 -14q-72 0 -127 14.5t-91.5 48t-55 90t-18.5 140.5v420zM298 925h160l120 -170h-121l-78 97l-80 -97h-121z
" />
    <glyph glyph-name="Udieresis" unicode="&#xdc;" horiz-adv-x="755" 
d="M86 700h164v-404q0 -51 7.5 -83.5t23.5 -51t41 -25.5t60 -7q33 0 56.5 6.5t38 24.5t21.5 50t7 82v408h164v-419q0 -86 -19.5 -142.5t-57 -90t-91.5 -47.5t-123 -14q-72 0 -127 14.5t-91.5 48t-55 90t-18.5 140.5v420zM263 762q-45 0 -65.5 19.5t-20.5 58.5t20.5 58.5
t65.5 19.5t65.5 -19.5t20.5 -58.5t-20.5 -58.5t-65.5 -19.5zM491 762q-45 0 -65.5 19.5t-20.5 58.5t20.5 58.5t65.5 19.5t65.5 -19.5t20.5 -58.5t-20.5 -58.5t-65.5 -19.5z" />
    <glyph glyph-name="Yacute" unicode="&#xdd;" horiz-adv-x="666" 
d="M252 252l-242 448h187l139 -267l134 267h186l-240 -448v-252h-164v252zM381 925h192l-178 -170h-122z" />
    <glyph glyph-name="Thorn" unicode="&#xde;" horiz-adv-x="634" 
d="M70 707h164v-96h90q132 0 201.5 -55.5t69.5 -175.5q0 -118 -69 -182t-216 -64h-76v-141h-164v714zM310 278q60 0 87.5 23.5t27.5 71.5q0 52 -27.5 73.5t-89.5 21.5h-77v-190h79z" />
    <glyph glyph-name="germandbls" unicode="&#xdf;" horiz-adv-x="675" 
d="M63 518q0 67 16 119t50 88t87.5 54.5t128.5 18.5q63 0 110.5 -15t79 -42t47.5 -64.5t16 -82.5q0 -37 -10 -66t-26.5 -50.5t-38.5 -35.5t-46 -22v-4q31 -5 59.5 -18.5t49.5 -37t33.5 -58.5t12.5 -82q0 -45 -14.5 -87t-44 -73.5t-75 -50.5t-108.5 -19q-29 0 -51.5 2
t-45.5 9v122q14 -5 31 -7.5t37 -2.5q48 0 76.5 27.5t28.5 90.5q0 36 -9 59t-25 35.5t-37 17.5t-46 5h-44v120h36q42 0 67 25t25 82q0 51 -28.5 73t-69.5 22q-33 0 -54 -11.5t-33.5 -32t-17.5 -48t-5 -58.5v-520h-162v518z" />
    <glyph glyph-name="agrave" unicode="&#xe0;" horiz-adv-x="619" 
d="M400 78q-8 -15 -23.5 -31.5t-38 -30t-52.5 -22t-68 -8.5q-48 0 -82 13t-56 35.5t-32 53.5t-10 67q0 89 57.5 126t183.5 37h110v26q0 43 -25 61.5t-90 18.5q-27 0 -54 -5t-51.5 -14t-45.5 -20t-36 -23v153q35 17 92 28t123 11q69 0 116.5 -10.5t77 -34.5t42 -62.5
t12.5 -95.5v-351h-144zM200 172q0 -27 16.5 -45.5t61.5 -18.5q59 0 85 27.5t26 68.5v29h-88q-58 0 -79.5 -13.5t-21.5 -47.5zM266 630l-170 160h190l100 -160h-120z" />
    <glyph glyph-name="aacute" unicode="&#xe1;" horiz-adv-x="619" 
d="M400 78q-8 -15 -23.5 -31.5t-38 -30t-52.5 -22t-68 -8.5q-48 0 -82 13t-56 35.5t-32 53.5t-10 67q0 89 57.5 126t183.5 37h110v26q0 43 -25 61.5t-90 18.5q-27 0 -54 -5t-51.5 -14t-45.5 -20t-36 -23v153q35 17 92 28t123 11q69 0 116.5 -10.5t77 -34.5t42 -62.5
t12.5 -95.5v-351h-144zM200 172q0 -27 16.5 -45.5t61.5 -18.5q59 0 85 27.5t26 68.5v29h-88q-58 0 -79.5 -13.5t-21.5 -47.5zM341 790h190l-170 -160h-120z" />
    <glyph glyph-name="acircumflex" unicode="&#xe2;" horiz-adv-x="619" 
d="M400 78q-8 -15 -23.5 -31.5t-38 -30t-52.5 -22t-68 -8.5q-48 0 -82 13t-56 35.5t-32 53.5t-10 67q0 89 57.5 126t183.5 37h110v26q0 43 -25 61.5t-90 18.5q-27 0 -54 -5t-51.5 -14t-45.5 -20t-36 -23v153q35 17 92 28t123 11q69 0 116.5 -10.5t77 -34.5t42 -62.5
t12.5 -95.5v-351h-144zM200 172q0 -27 16.5 -45.5t61.5 -18.5q59 0 85 27.5t26 68.5v29h-88q-58 0 -79.5 -13.5t-21.5 -47.5zM232 780h156l112 -160h-121l-68 87l-70 -87h-121z" />
    <glyph glyph-name="atilde" unicode="&#xe3;" horiz-adv-x="619" 
d="M400 78q-8 -15 -23.5 -31.5t-38 -30t-52.5 -22t-68 -8.5q-48 0 -82 13t-56 35.5t-32 53.5t-10 67q0 89 57.5 126t183.5 37h110v26q0 43 -25 61.5t-90 18.5q-27 0 -54 -5t-51.5 -14t-45.5 -20t-36 -23v153q35 17 92 28t123 11q69 0 116.5 -10.5t77 -34.5t42 -62.5
t12.5 -95.5v-351h-144zM200 172q0 -27 16.5 -45.5t61.5 -18.5q59 0 85 27.5t26 68.5v29h-88q-58 0 -79.5 -13.5t-21.5 -47.5zM120 640q2 65 33 98.5t78 33.5q22 0 41.5 -7.5t44.5 -18.5q13 -6 22 -10t16 -6.5t12.5 -3.5t12.5 -1q33 0 39 47l81 -13q-3 -61 -33 -96t-78 -35
q-12 0 -22 1t-19.5 4t-20.5 7.5t-25 11.5q-23 11 -35 17.5t-26 6.5t-25 -12.5t-15 -35.5z" />
    <glyph glyph-name="adieresis" unicode="&#xe4;" horiz-adv-x="619" 
d="M400 78q-8 -15 -23.5 -31.5t-38 -30t-52.5 -22t-68 -8.5q-48 0 -82 13t-56 35.5t-32 53.5t-10 67q0 89 57.5 126t183.5 37h110v26q0 43 -25 61.5t-90 18.5q-27 0 -54 -5t-51.5 -14t-45.5 -20t-36 -23v153q35 17 92 28t123 11q69 0 116.5 -10.5t77 -34.5t42 -62.5
t12.5 -95.5v-351h-144zM200 172q0 -27 16.5 -45.5t61.5 -18.5q59 0 85 27.5t26 68.5v29h-88q-58 0 -79.5 -13.5t-21.5 -47.5zM199 624q-45 0 -64.5 19t-19.5 57t19.5 57t64.5 19t64.5 -19t19.5 -57t-19.5 -57t-64.5 -19zM421 624q-45 0 -64.5 19t-19.5 57t19.5 57t64.5 19
t64.5 -19t19.5 -57t-19.5 -57t-64.5 -19z" />
    <glyph glyph-name="aring" unicode="&#xe5;" horiz-adv-x="619" 
d="M400 78q-8 -15 -23.5 -31.5t-38 -30t-52.5 -22t-68 -8.5q-48 0 -82 13t-56 35.5t-32 53.5t-10 67q0 89 57.5 126t183.5 37h110v26q0 43 -25 61.5t-90 18.5q-27 0 -54 -5t-51.5 -14t-45.5 -20t-36 -23v153q35 17 92 28t123 11q69 0 116.5 -10.5t77 -34.5t42 -62.5
t12.5 -95.5v-351h-144zM200 172q0 -27 16.5 -45.5t61.5 -18.5q59 0 85 27.5t26 68.5v29h-88q-58 0 -79.5 -13.5t-21.5 -47.5zM194 700q0 52 32 84t84 32t84 -32t32 -84t-32 -84t-84 -32t-84 32t-32 84zM266 700q0 -20 12 -32t32 -12t32 12t12 32t-12 32t-32 12t-32 -12
t-12 -32z" />
    <glyph glyph-name="ae" unicode="&#xe6;" horiz-adv-x="984" 
d="M555 230q2 -61 38 -90t113 -29q30 0 59 4.5t55 13t47.5 19.5t36.5 23v-136q-20 -17 -78 -33t-142 -16q-153 0 -221 71q-12 -14 -29.5 -26.5t-42 -22.5t-58.5 -16t-79 -6q-57 0 -98 13t-67.5 35.5t-38.5 53.5t-12 67q0 89 59.5 126.5t184.5 37.5h110v26q0 43 -25 61
t-90 18q-27 0 -54.5 -5t-52.5 -13.5t-46.5 -19.5t-36.5 -23v153q35 17 93.5 27.5t124.5 10.5q69 0 115.5 -10.5t75.5 -36.5q66 47 178 47q75 0 126 -18t82.5 -51.5t45 -81t13.5 -106.5v-67h-386zM671 435q-59 0 -87 -28t-30 -87h228q1 55 -24 85t-87 30zM200 172
q0 -27 18 -45.5t63 -18.5q59 0 85 27t26 68v27h-88q-58 0 -81 -11.5t-23 -46.5z" />
    <glyph glyph-name="ccedilla" unicode="&#xe7;" horiz-adv-x="580" 
d="M287 -11q-63 6 -108.5 25.5t-75 54.5t-43 86.5t-13.5 121.5q0 140 71 208.5t225 68.5q70 0 110 -10t66 -22v-149q-28 20 -65.5 33.5t-92.5 13.5q-75 0 -112 -32t-37 -112q0 -81 37.5 -118t127.5 -37q45 0 86.5 12.5t65.5 31.5v-141q-23 -12 -62 -23.5t-99 -13.5l-8 -39
q22 0 42 -5t35 -16.5t24 -29t9 -43.5q0 -48 -36.5 -78t-96.5 -30q-29 0 -55 4t-46 12l11 66q14 -5 28.5 -8.5t31.5 -3.5q23 0 38.5 11t15.5 33t-18 29.5t-40 7.5h-16t-16 -1z" />
    <glyph glyph-name="egrave" unicode="&#xe8;" horiz-adv-x="641" 
d="M208 231q2 -63 39.5 -91.5t115.5 -28.5q29 0 58 4.5t55 13t47.5 19.5t36.5 23v-136q-20 -17 -78 -33t-142 -16q-80 0 -135.5 18t-90.5 54t-51 91t-16 130q0 140 73.5 207.5t210.5 67.5q75 0 125.5 -18t82 -52t45 -81.5t13.5 -106.5v-65h-389zM328 435q-60 0 -89 -28
t-32 -85h231q1 54 -23.5 83.5t-86.5 29.5zM287 630l-170 160h190l100 -160h-120z" />
    <glyph glyph-name="eacute" unicode="&#xe9;" horiz-adv-x="641" 
d="M208 231q2 -63 39.5 -91.5t115.5 -28.5q29 0 58 4.5t55 13t47.5 19.5t36.5 23v-136q-20 -17 -78 -33t-142 -16q-80 0 -135.5 18t-90.5 54t-51 91t-16 130q0 140 73.5 207.5t210.5 67.5q75 0 125.5 -18t82 -52t45 -81.5t13.5 -106.5v-65h-389zM328 435q-60 0 -89 -28
t-32 -85h231q1 54 -23.5 83.5t-86.5 29.5zM363 790h190l-170 -160h-120z" />
    <glyph glyph-name="ecircumflex" unicode="&#xea;" horiz-adv-x="641" 
d="M208 231q2 -63 39.5 -91.5t115.5 -28.5q29 0 58 4.5t55 13t47.5 19.5t36.5 23v-136q-20 -17 -78 -33t-142 -16q-80 0 -135.5 18t-90.5 54t-51 91t-16 130q0 140 73.5 207.5t210.5 67.5q75 0 125.5 -18t82 -52t45 -81.5t13.5 -106.5v-65h-389zM328 435q-60 0 -89 -28
t-32 -85h231q1 54 -23.5 83.5t-86.5 29.5zM253 780h156l112 -160h-121l-68 87l-70 -87h-121z" />
    <glyph glyph-name="edieresis" unicode="&#xeb;" horiz-adv-x="641" 
d="M208 231q2 -63 39.5 -91.5t115.5 -28.5q29 0 58 4.5t55 13t47.5 19.5t36.5 23v-136q-20 -17 -78 -33t-142 -16q-80 0 -135.5 18t-90.5 54t-51 91t-16 130q0 140 73.5 207.5t210.5 67.5q75 0 125.5 -18t82 -52t45 -81.5t13.5 -106.5v-65h-389zM328 435q-60 0 -89 -28
t-32 -85h231q1 54 -23.5 83.5t-86.5 29.5zM221 624q-45 0 -64.5 19t-19.5 57t19.5 57t64.5 19t64.5 -19t19.5 -57t-19.5 -57t-64.5 -19zM443 624q-45 0 -64.5 19t-19.5 57t19.5 57t64.5 19t64.5 -19t19.5 -57t-19.5 -57t-64.5 -19z" />
    <glyph glyph-name="igrave" unicode="&#xec;" horiz-adv-x="321" 
d="M80 540h160v-540h-160v540zM119 630l-170 160h190l100 -160h-120z" />
    <glyph glyph-name="iacute" unicode="&#xed;" horiz-adv-x="321" 
d="M80 540h160v-540h-160v540zM194 790h190l-170 -160h-120z" />
    <glyph glyph-name="icircumflex" unicode="&#xee;" horiz-adv-x="321" 
d="M80 540h160v-540h-160v540zM83 780h156l112 -160h-121l-68 87l-70 -87h-121z" />
    <glyph glyph-name="idieresis" unicode="&#xef;" horiz-adv-x="321" 
d="M80 540h160v-540h-160v540zM50 624q-45 0 -64.5 19t-19.5 57t19.5 57t64.5 19t64.5 -19t19.5 -57t-19.5 -57t-64.5 -19zM272 624q-45 0 -64.5 19t-19.5 57t19.5 57t64.5 19t64.5 -19t19.5 -57t-19.5 -57t-64.5 -19z" />
    <glyph glyph-name="eth" unicode="&#xf0;" horiz-adv-x="666" 
d="M158 617l81 41q-37 16 -69.5 25t-58.5 13l57 102q49 -8 100.5 -26t103.5 -46l137 67l34 -63l-101 -51q96 -86 136 -188t40 -212q0 -88 -27.5 -144.5t-70.5 -89t-96 -45t-103 -12.5q-76 0 -128.5 20t-85.5 56t-48 86t-15 110q0 128 65 195.5t185 67.5q32 0 67 -9.5
t70 -42.5l4 2q-13 36 -40 71.5t-78 72.5l-126 -62zM208 262q0 -78 33.5 -112.5t89.5 -34.5q61 0 92 34.5t31 112.5q0 70 -30 107t-93 37q-60 0 -91.5 -33t-31.5 -111z" />
    <glyph glyph-name="ntilde" unicode="&#xf1;" horiz-adv-x="676" 
d="M76 540h154l5 -76q25 50 70.5 70t104.5 20q97 0 147 -45t50 -150v-359h-159v305q0 33 -5 55.5t-17 36t-32 19.5t-50 6q-59 0 -84 -29.5t-25 -87.5v-305h-159v540zM152 640q2 65 33 98.5t78 33.5q22 0 41.5 -7.5t44.5 -18.5q13 -6 22 -10t16 -6.5t12.5 -3.5t12.5 -1
q33 0 39 47l81 -13q-3 -61 -33 -96t-78 -35q-12 0 -22 1t-19.5 4t-20.5 7.5t-25 11.5q-23 11 -35 17.5t-26 6.5t-25 -12.5t-15 -35.5z" />
    <glyph glyph-name="ograve" unicode="&#xf2;" horiz-adv-x="675" 
d="M47 271q0 144 74 213.5t219 69.5q150 0 219 -68.5t69 -215.5t-71.5 -215.5t-219.5 -68.5q-152 0 -221 70t-69 215zM211 267q0 -77 29 -115.5t99 -38.5q67 0 96 36t29 117v5q0 82 -27.5 119t-99.5 37q-71 0 -98.5 -37.5t-27.5 -118.5v-4zM294 630l-170 160h190l100 -160
h-120z" />
    <glyph glyph-name="oacute" unicode="&#xf3;" horiz-adv-x="675" 
d="M47 271q0 144 74 213.5t219 69.5q150 0 219 -68.5t69 -215.5t-71.5 -215.5t-219.5 -68.5q-152 0 -221 70t-69 215zM211 267q0 -77 29 -115.5t99 -38.5q67 0 96 36t29 117v5q0 82 -27.5 119t-99.5 37q-71 0 -98.5 -37.5t-27.5 -118.5v-4zM369 790h190l-170 -160h-120z" />
    <glyph glyph-name="ocircumflex" unicode="&#xf4;" horiz-adv-x="675" 
d="M47 271q0 144 74 213.5t219 69.5q150 0 219 -68.5t69 -215.5t-71.5 -215.5t-219.5 -68.5q-152 0 -221 70t-69 215zM211 267q0 -77 29 -115.5t99 -38.5q67 0 96 36t29 117v5q0 82 -27.5 119t-99.5 37q-71 0 -98.5 -37.5t-27.5 -118.5v-4zM260 780h156l112 -160h-121
l-68 87l-70 -87h-121z" />
    <glyph glyph-name="otilde" unicode="&#xf5;" horiz-adv-x="675" 
d="M47 271q0 144 74 213.5t219 69.5q150 0 219 -68.5t69 -215.5t-71.5 -215.5t-219.5 -68.5q-152 0 -221 70t-69 215zM211 267q0 -77 29 -115.5t99 -38.5q67 0 96 36t29 117v5q0 82 -27.5 119t-99.5 37q-71 0 -98.5 -37.5t-27.5 -118.5v-4zM148 640q2 65 33 98.5t78 33.5
q22 0 41.5 -7.5t44.5 -18.5q13 -6 22 -10t16 -6.5t12.5 -3.5t12.5 -1q33 0 39 47l81 -13q-3 -61 -33 -96t-78 -35q-12 0 -22 1t-19.5 4t-20.5 7.5t-25 11.5q-23 11 -35 17.5t-26 6.5t-25 -12.5t-15 -35.5z" />
    <glyph glyph-name="odieresis" unicode="&#xf6;" horiz-adv-x="675" 
d="M47 271q0 144 74 213.5t219 69.5q150 0 219 -68.5t69 -215.5t-71.5 -215.5t-219.5 -68.5q-152 0 -221 70t-69 215zM211 267q0 -77 29 -115.5t99 -38.5q67 0 96 36t29 117v5q0 82 -27.5 119t-99.5 37q-71 0 -98.5 -37.5t-27.5 -118.5v-4zM226 624q-45 0 -64.5 19t-19.5 57
t19.5 57t64.5 19t64.5 -19t19.5 -57t-19.5 -57t-64.5 -19zM448 624q-45 0 -64.5 19t-19.5 57t19.5 57t64.5 19t64.5 -19t19.5 -57t-19.5 -57t-64.5 -19z" />
    <glyph glyph-name="divide" unicode="&#xf7;" horiz-adv-x="585" 
d="M214 133q0 37 21 57.5t59 20.5q35 0 56.5 -21t21.5 -57q0 -38 -20 -58t-58 -20q-37 0 -58.5 20.5t-21.5 57.5zM214 517q0 37 21 57.5t59 20.5q35 0 56.5 -21t21.5 -57q0 -38 -20 -58t-58 -20q-37 0 -58.5 21t-21.5 57zM58 384h470v-118h-470v118z" />
    <glyph glyph-name="oslash" unicode="&#xf8;" horiz-adv-x="675" 
d="M47 271q0 144 74 213.5t219 69.5q82 0 141 -21l52 68l63 -46l-46 -61q78 -68 78 -224q0 -147 -71.5 -215.5t-219.5 -68.5q-92 0 -152 25l-53 -70l-63 47l49 65q-37 35 -54 89.5t-17 128.5zM464 271q0 59 -13 92l-179 -237q26 -13 67 -13q67 0 96 36t29 117v5zM211 267
q0 -48 10 -78l174 230q-26 8 -58 8q-71 0 -98.5 -37.5t-27.5 -118.5v-4z" />
    <glyph glyph-name="ugrave" unicode="&#xf9;" horiz-adv-x="676" 
d="M441 79q-28 -48 -71.5 -70.5t-110.5 -22.5q-97 0 -142.5 49.5t-45.5 155.5v349h159v-311q0 -58 22 -83.5t79 -25.5t83 28t26 88v304h159v-540h-153zM294 630l-170 160h190l100 -160h-120z" />
    <glyph glyph-name="uacute" unicode="&#xfa;" horiz-adv-x="676" 
d="M441 79q-28 -48 -71.5 -70.5t-110.5 -22.5q-97 0 -142.5 49.5t-45.5 155.5v349h159v-311q0 -58 22 -83.5t79 -25.5t83 28t26 88v304h159v-540h-153zM370 790h190l-170 -160h-120z" />
    <glyph glyph-name="ucircumflex" unicode="&#xfb;" horiz-adv-x="676" 
d="M441 79q-28 -48 -71.5 -70.5t-110.5 -22.5q-97 0 -142.5 49.5t-45.5 155.5v349h159v-311q0 -58 22 -83.5t79 -25.5t83 28t26 88v304h159v-540h-153zM260 780h156l112 -160h-121l-68 87l-70 -87h-121z" />
    <glyph glyph-name="udieresis" unicode="&#xfc;" horiz-adv-x="676" 
d="M441 79q-28 -48 -71.5 -70.5t-110.5 -22.5q-97 0 -142.5 49.5t-45.5 155.5v349h159v-311q0 -58 22 -83.5t79 -25.5t83 28t26 88v304h159v-540h-153zM224 624q-45 0 -64.5 19t-19.5 57t19.5 57t64.5 19t64.5 -19t19.5 -57t-19.5 -57t-64.5 -19zM446 624q-45 0 -64.5 19
t-19.5 57t19.5 57t64.5 19t64.5 -19t19.5 -57t-19.5 -57t-64.5 -19z" />
    <glyph glyph-name="yacute" unicode="&#xfd;" horiz-adv-x="602" 
d="M191 -60q22 0 35.5 12t23.5 46l-233 542h180l127 -349l100 349h164l-183 -526q-22 -63 -42.5 -103t-44 -63.5t-50 -32.5t-60.5 -9q-23 0 -47.5 3.5t-38.5 9.5l1 139q13 -7 31 -12.5t37 -5.5zM333 790h190l-170 -160h-120z" />
    <glyph glyph-name="thorn" unicode="&#xfe;" horiz-adv-x="696" 
d="M75 763h160v-302q23 42 66.5 67.5t118.5 25.5q61 0 104 -15.5t71 -48.5t41 -85.5t13 -125.5q0 -149 -56.5 -219.5t-184.5 -70.5q-38 0 -66 7t-48.5 18.5t-35 25.5t-23.5 28v-248h-160v943zM235 251q0 -63 29 -98.5t96 -35.5q34 0 57.5 9t38 28.5t20.5 50t6 73.5
q0 80 -29 114t-94 34q-66 0 -95 -34.5t-29 -97.5v-43z" />
    <glyph glyph-name="ydieresis" unicode="&#xff;" horiz-adv-x="602" 
d="M191 -60q22 0 35.5 12t23.5 46l-233 542h180l127 -349l100 349h164l-183 -526q-22 -63 -42.5 -103t-44 -63.5t-50 -32.5t-60.5 -9q-23 0 -47.5 3.5t-38.5 9.5l1 139q13 -7 31 -12.5t37 -5.5zM191 624q-45 0 -64.5 19t-19.5 57t19.5 57t64.5 19t64.5 -19t19.5 -57
t-19.5 -57t-64.5 -19zM413 624q-45 0 -64.5 19t-19.5 57t19.5 57t64.5 19t64.5 -19t19.5 -57t-19.5 -57t-64.5 -19z" />
    <glyph glyph-name="Amacron" unicode="&#x100;" horiz-adv-x="707" 
d="M478 147h-256l-48 -147h-163l246 700h194l245 -700h-168zM267 282h166l-83 249zM178 892h350v-104h-350v104z" />
    <glyph glyph-name="amacron" unicode="&#x101;" horiz-adv-x="619" 
d="M400 78q-8 -15 -23.5 -31.5t-38 -30t-52.5 -22t-68 -8.5q-48 0 -82 13t-56 35.5t-32 53.5t-10 67q0 89 57.5 126t183.5 37h110v26q0 43 -25 61.5t-90 18.5q-27 0 -54 -5t-51.5 -14t-45.5 -20t-36 -23v153q35 17 92 28t123 11q69 0 116.5 -10.5t77 -34.5t42 -62.5
t12.5 -95.5v-351h-144zM200 172q0 -27 16.5 -45.5t61.5 -18.5q59 0 85 27.5t26 68.5v29h-88q-58 0 -79.5 -13.5t-21.5 -47.5zM140 750h340v-100h-340v100z" />
    <glyph glyph-name="Abreve" unicode="&#x102;" horiz-adv-x="707" 
d="M478 147h-256l-48 -147h-163l246 700h194l245 -700h-168zM267 282h166l-83 249zM353 755q-143 0 -180 145l94 25q11 -38 33.5 -54t52.5 -16t52.5 16t33.5 54l94 -25q-37 -145 -180 -145z" />
    <glyph glyph-name="abreve" unicode="&#x103;" horiz-adv-x="619" 
d="M400 78q-8 -15 -23.5 -31.5t-38 -30t-52.5 -22t-68 -8.5q-48 0 -82 13t-56 35.5t-32 53.5t-10 67q0 89 57.5 126t183.5 37h110v26q0 43 -25 61.5t-90 18.5q-27 0 -54 -5t-51.5 -14t-45.5 -20t-36 -23v153q35 17 92 28t123 11q69 0 116.5 -10.5t77 -34.5t42 -62.5
t12.5 -95.5v-351h-144zM200 172q0 -27 16.5 -45.5t61.5 -18.5q59 0 85 27.5t26 68.5v29h-88q-58 0 -79.5 -13.5t-21.5 -47.5zM310 615q-143 0 -180 145l92 25q11 -38 34.5 -55t53.5 -17t53.5 17t34.5 55l92 -25q-37 -145 -180 -145z" />
    <glyph glyph-name="Aogonek" unicode="&#x104;" horiz-adv-x="707" 
d="M478 147h-256l-48 -147h-163l246 700h194l245 -700h-42q-42 -27 -64 -58.5t-22 -71.5q0 -27 17 -40.5t43 -13.5q34 0 62 16v-75q-17 -8 -41.5 -14.5t-57.5 -6.5q-39 0 -65 10t-41.5 25.5t-21.5 35t-6 38.5q0 25 9 47.5t24.5 42t35.5 36t43 29.5h-41zM267 282h166l-83 249
z" />
    <glyph glyph-name="aogonek" unicode="&#x105;" horiz-adv-x="619" 
d="M400 78q-8 -15 -23.5 -31.5t-38 -30t-52.5 -22t-68 -8.5q-48 0 -82 13t-56 35.5t-32 53.5t-10 67q0 89 57.5 126t183.5 37h110v26q0 43 -25 61.5t-90 18.5q-27 0 -54 -5t-51.5 -14t-45.5 -20t-36 -23v153q35 17 92 28t123 11q69 0 116.5 -10.5t77 -34.5t42 -62.5
t12.5 -95.5v-351h-29q-38 -26 -59.5 -56t-21.5 -68q0 -26 16 -40.5t41 -14.5q31 0 60 16v-71q-17 -8 -39.5 -14t-54.5 -6q-38 0 -63.5 10t-40.5 25t-21.5 34t-6.5 37q0 48 31.5 86t74.5 62h-31zM200 172q0 -27 16.5 -45.5t61.5 -18.5q59 0 85 27.5t26 68.5v29h-88
q-58 0 -79.5 -13.5t-21.5 -47.5z" />
    <glyph glyph-name="Cacute" unicode="&#x106;" horiz-adv-x="656" 
d="M595 515q-31 18 -74.5 34t-111.5 16q-47 0 -82 -11t-58 -36t-34 -65.5t-11 -99.5q0 -62 12 -104t36 -67.5t60 -36t85 -10.5q66 0 113 17t73 36v-163q-27 -13 -77.5 -25.5t-121.5 -12.5q-94 0 -161 21.5t-110 65.5t-63 111t-20 159q0 94 20.5 163.5t63.5 115.5t110 68
t161 22q71 0 118 -11.5t72 -19.5v-167zM426 925h192l-178 -170h-122z" />
    <glyph glyph-name="cacute" unicode="&#x107;" horiz-adv-x="580" 
d="M519 373q-28 20 -65.5 33.5t-92.5 13.5q-75 0 -112 -32t-37 -112q0 -81 37.5 -118t127.5 -37q45 0 86.5 12.5t65.5 31.5v-141q-24 -13 -68.5 -25.5t-112.5 -12.5q-80 0 -136.5 16.5t-93.5 51.5t-54 90t-17 133q0 140 71 208.5t225 68.5q70 0 110 -10t66 -22v-149z
M370 790h190l-170 -160h-120z" />
    <glyph glyph-name="Ccircumflex" unicode="&#x108;" horiz-adv-x="656" 
d="M595 515q-31 18 -74.5 34t-111.5 16q-47 0 -82 -11t-58 -36t-34 -65.5t-11 -99.5q0 -62 12 -104t36 -67.5t60 -36t85 -10.5q66 0 113 17t73 36v-163q-27 -13 -77.5 -25.5t-121.5 -12.5q-94 0 -161 21.5t-110 65.5t-63 111t-20 159q0 94 20.5 163.5t63.5 115.5t110 68
t161 22q71 0 118 -11.5t72 -19.5v-167zM299 925h160l120 -170h-121l-78 97l-80 -97h-121z" />
    <glyph glyph-name="ccircumflex" unicode="&#x109;" horiz-adv-x="580" 
d="M519 373q-28 20 -65.5 33.5t-92.5 13.5q-75 0 -112 -32t-37 -112q0 -81 37.5 -118t127.5 -37q45 0 86.5 12.5t65.5 31.5v-141q-24 -13 -68.5 -25.5t-112.5 -12.5q-80 0 -136.5 16.5t-93.5 51.5t-54 90t-17 133q0 140 71 208.5t225 68.5q70 0 110 -10t66 -22v-149z
M260 780h156l112 -160h-121l-68 87l-70 -87h-121z" />
    <glyph glyph-name="Cdotaccent" unicode="&#x10a;" horiz-adv-x="656" 
d="M595 515q-31 18 -74.5 34t-111.5 16q-47 0 -82 -11t-58 -36t-34 -65.5t-11 -99.5q0 -62 12 -104t36 -67.5t60 -36t85 -10.5q66 0 113 17t73 36v-163q-27 -13 -77.5 -25.5t-121.5 -12.5q-94 0 -161 21.5t-110 65.5t-63 111t-20 159q0 94 20.5 163.5t63.5 115.5t110 68
t161 22q71 0 118 -11.5t72 -19.5v-167zM379 758q-47 0 -68.5 20.5t-21.5 61.5t21.5 61.5t68.5 20.5t68.5 -20.5t21.5 -61.5t-21.5 -61.5t-68.5 -20.5z" />
    <glyph glyph-name="cdotaccent" unicode="&#x10b;" horiz-adv-x="580" 
d="M519 373q-28 20 -65.5 33.5t-92.5 13.5q-75 0 -112 -32t-37 -112q0 -81 37.5 -118t127.5 -37q45 0 86.5 12.5t65.5 31.5v-141q-24 -13 -68.5 -25.5t-112.5 -12.5q-80 0 -136.5 16.5t-93.5 51.5t-54 90t-17 133q0 140 71 208.5t225 68.5q70 0 110 -10t66 -22v-149z
M338 620q-46 0 -67 20t-21 60t21 60t67 20t67 -20t21 -60t-21 -60t-67 -20z" />
    <glyph glyph-name="Ccaron" unicode="&#x10c;" horiz-adv-x="656" 
d="M595 515q-31 18 -74.5 34t-111.5 16q-47 0 -82 -11t-58 -36t-34 -65.5t-11 -99.5q0 -62 12 -104t36 -67.5t60 -36t85 -10.5q66 0 113 17t73 36v-163q-27 -13 -77.5 -25.5t-121.5 -12.5q-94 0 -161 21.5t-110 65.5t-63 111t-20 159q0 94 20.5 163.5t63.5 115.5t110 68
t161 22q71 0 118 -11.5t72 -19.5v-167zM179 935h121l79 -97l79 97h121l-120 -170h-160z" />
    <glyph glyph-name="ccaron" unicode="&#x10d;" horiz-adv-x="580" 
d="M519 373q-28 20 -65.5 33.5t-92.5 13.5q-75 0 -112 -32t-37 -112q0 -81 37.5 -118t127.5 -37q45 0 86.5 12.5t65.5 31.5v-141q-24 -13 -68.5 -25.5t-112.5 -12.5q-80 0 -136.5 16.5t-93.5 51.5t-54 90t-17 133q0 140 71 208.5t225 68.5q70 0 110 -10t66 -22v-149z
M148 790h121l69 -87l69 87h121l-112 -160h-156z" />
    <glyph glyph-name="Dcaron" unicode="&#x10e;" horiz-adv-x="753" 
d="M91 699q31 2 59 3.5t56 2t58.5 1t67.5 0.5q107 0 178.5 -22.5t114 -65.5t60.5 -106t18 -145q0 -95 -22.5 -165.5t-70 -116.5t-121 -68.5t-174.5 -22.5q-33 0 -61 0.5t-54 1.5t-52.5 2.5t-56.5 3.5v697zM255 139q18 -2 33.5 -3t34.5 -1q56 0 96 12.5t65.5 39.5t37.5 69.5
t12 101.5q0 55 -10.5 94.5t-34 64.5t-61.5 36.5t-93 11.5q-23 0 -41.5 -1t-38.5 -3v-422zM177 935h121l79 -97l79 97h121l-120 -170h-160z" />
    <glyph glyph-name="dcaron" unicode="&#x10f;" horiz-adv-x="808" 
d="M465 85q-12 -21 -27 -39t-36.5 -31.5t-51 -21t-70.5 -7.5q-120 0 -176.5 66.5t-56.5 211.5t57.5 217.5t184.5 72.5q37 0 65 -5.5t48.5 -15t34.5 -22t24 -27.5v276h159v-760h-150zM338 114q67 0 95.5 37.5t27.5 98.5v51q0 60 -27.5 92.5t-95.5 32.5q-34 0 -58 -8
t-39 -26.5t-21.5 -49t-6.5 -74.5t8 -73.5t24 -47.5t39.5 -25.5t53.5 -7.5zM726 760h144l-86 -200h-104z" />
    <glyph glyph-name="Dcroat" unicode="&#x110;" horiz-adv-x="761" 
d="M22 415h69v284q31 2 59 3.5t56 2t58.5 1t67.5 0.5q107 0 178.5 -22.5t114 -65.5t60.5 -106t18 -145q0 -95 -22.5 -165.5t-70 -116.5t-121 -68.5t-174.5 -22.5q-33 0 -61 0.5t-54 1.5t-52.5 2.5t-56.5 3.5v292h-69v121zM255 139q18 -2 33.5 -3t34.5 -1q56 0 96 12.5
t65.5 39.5t37.5 69.5t12 101.5q0 55 -10.5 94.5t-34 64.5t-61.5 36.5t-93 11.5q-23 0 -41.5 -1t-38.5 -3v-146h162v-121h-162v-155z" />
    <glyph glyph-name="dcroat" unicode="&#x111;" horiz-adv-x="704" 
d="M465 85q-12 -21 -27 -39t-36.5 -31.5t-51 -21t-70.5 -7.5q-120 0 -176.5 66.5t-56.5 211.5t57.5 217.5t184.5 72.5q37 0 65 -5.5t48.5 -15t34.5 -22t24 -27.5v120h-237v91h237v65h159v-65h73v-91h-73v-604h-150zM338 114q67 0 95 37.5t28 98.5v51q0 60 -27.5 92.5
t-95.5 32.5q-34 0 -58 -8t-39 -26.5t-21.5 -49t-6.5 -74.5t8 -73.5t24 -47.5t39.5 -25.5t53.5 -7.5z" />
    <glyph glyph-name="Emacron" unicode="&#x112;" horiz-adv-x="636" 
d="M91 700h488v-142h-324v-138h285v-132h-285v-146h324v-142h-488v700zM160 892h350v-104h-350v104z" />
    <glyph glyph-name="emacron" unicode="&#x113;" horiz-adv-x="641" 
d="M208 231q2 -63 39.5 -91.5t115.5 -28.5q29 0 58 4.5t55 13t47.5 19.5t36.5 23v-136q-20 -17 -78 -33t-142 -16q-80 0 -135.5 18t-90.5 54t-51 91t-16 130q0 140 73.5 207.5t210.5 67.5q75 0 125.5 -18t82 -52t45 -81.5t13.5 -106.5v-65h-389zM328 435q-60 0 -89 -28
t-32 -85h231q1 54 -23.5 83.5t-86.5 29.5zM161 750h340v-100h-340v100z" />
    <glyph glyph-name="Edotaccent" unicode="&#x116;" horiz-adv-x="636" 
d="M91 700h488v-142h-324v-138h285v-132h-285v-146h324v-142h-488v700zM335 758q-47 0 -68.5 20.5t-21.5 61.5t21.5 61.5t68.5 20.5t68.5 -20.5t21.5 -61.5t-21.5 -61.5t-68.5 -20.5z" />
    <glyph glyph-name="edotaccent" unicode="&#x117;" horiz-adv-x="641" 
d="M208 231q2 -63 39.5 -91.5t115.5 -28.5q29 0 58 4.5t55 13t47.5 19.5t36.5 23v-136q-20 -17 -78 -33t-142 -16q-80 0 -135.5 18t-90.5 54t-51 91t-16 130q0 140 73.5 207.5t210.5 67.5q75 0 125.5 -18t82 -52t45 -81.5t13.5 -106.5v-65h-389zM328 435q-60 0 -89 -28
t-32 -85h231q1 54 -23.5 83.5t-86.5 29.5zM331 620q-46 0 -67 20t-21 60t21 60t67 20t67 -20t21 -60t-21 -60t-67 -20z" />
    <glyph glyph-name="Eogonek" unicode="&#x118;" horiz-adv-x="636" 
d="M91 700h488v-142h-324v-138h285v-132h-285v-146h324v-142h-33q-42 -27 -64 -58.5t-22 -71.5q0 -27 17 -40.5t43 -13.5q34 0 62 16v-75q-17 -8 -41.5 -14.5t-57.5 -6.5q-39 0 -65 10t-41.5 25.5t-21.5 35t-6 38.5q0 25 9 47.5t24.5 42t35.5 36t43 29.5h-370v700z" />
    <glyph glyph-name="eogonek" unicode="&#x119;" horiz-adv-x="641" 
d="M485 -234q-17 -8 -39.5 -14t-54.5 -6q-38 0 -63.5 10t-40.5 25t-21.5 34t-6.5 37q0 42 24.5 76t59.5 58h-3q-80 0 -135.5 18t-90.5 54t-51 91t-16 130q0 140 73.5 207.5t210.5 67.5q75 0 125.5 -18t82 -52t45 -81.5t13.5 -106.5v-65h-389q2 -63 39.5 -91.5t115.5 -28.5
q29 0 58 4.5t55 13t47.5 19.5t36.5 23v-136q-14 -11 -44.5 -22.5t-75.5 -18.5q-35 -25 -53.5 -53.5t-18.5 -64.5q0 -26 16 -40.5t41 -14.5q31 0 60 16v-71zM328 435q-60 0 -89 -28t-32 -85h231q1 54 -23.5 83.5t-86.5 29.5z" />
    <glyph glyph-name="Ecaron" unicode="&#x11a;" horiz-adv-x="636" 
d="M91 700h488v-142h-324v-138h285v-132h-285v-146h324v-142h-488v700zM132 935h121l79 -97l79 97h121l-120 -170h-160z" />
    <glyph glyph-name="ecaron" unicode="&#x11b;" horiz-adv-x="641" 
d="M208 231q2 -63 39.5 -91.5t115.5 -28.5q29 0 58 4.5t55 13t47.5 19.5t36.5 23v-136q-20 -17 -78 -33t-142 -16q-80 0 -135.5 18t-90.5 54t-51 91t-16 130q0 140 73.5 207.5t210.5 67.5q75 0 125.5 -18t82 -52t45 -81.5t13.5 -106.5v-65h-389zM328 435q-60 0 -89 -28
t-32 -85h231q1 54 -23.5 83.5t-86.5 29.5zM141 790h121l69 -87l69 87h121l-112 -160h-156z" />
    <glyph glyph-name="Gcircumflex" unicode="&#x11c;" horiz-adv-x="717" 
d="M390 395h270v-355q-17 -9 -42 -18t-57.5 -17t-72 -13t-83.5 -5q-183 0 -269 85t-86 272q0 94 20.5 163.5t65 115.5t115 68t170.5 22q74 0 121 -10t71 -21v-157q-36 22 -81 34.5t-100 12.5q-58 0 -98.5 -12.5t-66 -38.5t-37 -68t-11.5 -100q0 -122 48 -173.5t151 -51.5
q34 0 57.5 4t41.5 9v122h-127v132zM296 925h160l120 -170h-121l-78 97l-80 -97h-121z" />
    <glyph glyph-name="gcircumflex" unicode="&#x11d;" horiz-adv-x="697" 
d="M100 -11q25 -16 78 -33t134 -17q42 0 71 7.5t46 21.5t24.5 35.5t7.5 50.5v51q-23 -35 -66.5 -58t-112.5 -23q-119 0 -177 58t-58 193q0 146 57 212.5t184 66.5q39 0 68 -7t50 -19t35.5 -27.5t23.5 -33.5l5 73h151v-476q0 -73 -19 -122.5t-58 -79.5t-97.5 -43t-136.5 -13
q-67 0 -123.5 11t-86.5 22v150zM337 152q63 0 94 28.5t31 96.5v25q0 69 -31 96.5t-95 27.5q-63 0 -93 -31t-30 -109q0 -74 32.5 -104t91.5 -30zM271 780h156l112 -160h-121l-68 87l-70 -87h-121z" />
    <glyph glyph-name="Gbreve" unicode="&#x11e;" horiz-adv-x="717" 
d="M390 395h270v-355q-17 -9 -42 -18t-57.5 -17t-72 -13t-83.5 -5q-183 0 -269 85t-86 272q0 94 20.5 163.5t65 115.5t115 68t170.5 22q74 0 121 -10t71 -21v-157q-36 22 -81 34.5t-100 12.5q-58 0 -98.5 -12.5t-66 -38.5t-37 -68t-11.5 -100q0 -122 48 -173.5t151 -51.5
q34 0 57.5 4t41.5 9v122h-127v132zM390 755q-143 0 -180 145l94 25q11 -38 33.5 -54t52.5 -16t52.5 16t33.5 54l94 -25q-37 -145 -180 -145z" />
    <glyph glyph-name="gbreve" unicode="&#x11f;" horiz-adv-x="697" 
d="M100 -11q25 -16 78 -33t134 -17q42 0 71 7.5t46 21.5t24.5 35.5t7.5 50.5v51q-23 -35 -66.5 -58t-112.5 -23q-119 0 -177 58t-58 193q0 146 57 212.5t184 66.5q39 0 68 -7t50 -19t35.5 -27.5t23.5 -33.5l5 73h151v-476q0 -73 -19 -122.5t-58 -79.5t-97.5 -43t-136.5 -13
q-67 0 -123.5 11t-86.5 22v150zM337 152q63 0 94 28.5t31 96.5v25q0 69 -31 96.5t-95 27.5q-63 0 -93 -31t-30 -109q0 -74 32.5 -104t91.5 -30zM334 615q-143 0 -180 145l92 25q11 -38 34.5 -55t53.5 -17t53.5 17t34.5 55l92 -25q-37 -145 -180 -145z" />
    <glyph glyph-name="Gdotaccent" unicode="&#x120;" horiz-adv-x="717" 
d="M390 395h270v-355q-17 -9 -42 -18t-57.5 -17t-72 -13t-83.5 -5q-183 0 -269 85t-86 272q0 94 20.5 163.5t65 115.5t115 68t170.5 22q74 0 121 -10t71 -21v-157q-36 22 -81 34.5t-100 12.5q-58 0 -98.5 -12.5t-66 -38.5t-37 -68t-11.5 -100q0 -122 48 -173.5t151 -51.5
q34 0 57.5 4t41.5 9v122h-127v132zM376 758q-47 0 -68.5 20.5t-21.5 61.5t21.5 61.5t68.5 20.5t68.5 -20.5t21.5 -61.5t-21.5 -61.5t-68.5 -20.5z" />
    <glyph glyph-name="gdotaccent" unicode="&#x121;" horiz-adv-x="697" 
d="M100 -11q25 -16 78 -33t134 -17q42 0 71 7.5t46 21.5t24.5 35.5t7.5 50.5v51q-23 -35 -66.5 -58t-112.5 -23q-119 0 -177 58t-58 193q0 146 57 212.5t184 66.5q39 0 68 -7t50 -19t35.5 -27.5t23.5 -33.5l5 73h151v-476q0 -73 -19 -122.5t-58 -79.5t-97.5 -43t-136.5 -13
q-67 0 -123.5 11t-86.5 22v150zM337 152q63 0 94 28.5t31 96.5v25q0 69 -31 96.5t-95 27.5q-63 0 -93 -31t-30 -109q0 -74 32.5 -104t91.5 -30zM349 620q-46 0 -67 20t-21 60t21 60t67 20t67 -20t21 -60t-21 -60t-67 -20z" />
    <glyph glyph-name="Gcommaaccent" unicode="&#x122;" horiz-adv-x="717" 
d="M390 395h270v-355q-17 -9 -42 -18t-57.5 -17t-72 -13t-83.5 -5q-183 0 -269 85t-86 272q0 94 20.5 163.5t65 115.5t115 68t170.5 22q74 0 121 -10t71 -21v-157q-36 22 -81 34.5t-100 12.5q-58 0 -98.5 -12.5t-66 -38.5t-37 -68t-11.5 -100q0 -122 48 -173.5t151 -51.5
q34 0 57.5 4t41.5 9v122h-127v132zM305 -204q34 0 58 8.5t28 32.5q-5 -1 -10 -1h-10q-42 0 -64 14t-22 40t26 41.5t68 15.5q43 0 70 -21t27 -66q0 -52 -41 -86.5t-111 -34.5h-9t-10 1v56v0z" />
    <glyph glyph-name="gcommaaccent" unicode="&#x123;" horiz-adv-x="697" 
d="M100 -11q25 -16 78 -33t134 -17q42 0 71 7.5t46 21.5t24.5 35.5t7.5 50.5v51q-23 -35 -66.5 -58t-112.5 -23q-119 0 -177 58t-58 193q0 146 57 212.5t184 66.5q39 0 68 -7t50 -19t35.5 -27.5t23.5 -33.5l5 73h151v-476q0 -73 -19 -122.5t-58 -79.5t-97.5 -43t-136.5 -13
q-67 0 -123.5 11t-86.5 22v150zM337 152q63 0 94 28.5t31 96.5v25q0 69 -31 96.5t-95 27.5q-63 0 -93 -31t-30 -109q0 -74 32.5 -104t91.5 -30zM400.021 762.976q-31.9961 0 -53.9941 -8.49902q-21.9971 -8.49805 -24.9961 -31.4961q4.99902 1 9.49805 1h9.49902
q36.9951 0 57.9932 -12.998q20.9971 -12.998 20.9971 -37.9951t-23.9971 -39.4951q-23.9971 -14.499 -62.9922 -14.499q-39.9951 0 -65.4922 19.998q-25.4961 19.9971 -25.4961 61.9922q0 49.9941 38.4951 82.9902t104.487 32.9961h7.99902q3.99902 0 7.99902 -1v-52.9941v0
z" />
    <glyph glyph-name="Hcircumflex" unicode="&#x124;" horiz-adv-x="803" 
d="M91 700h164v-272h293v272h164v-700h-164v286h-293v-286h-164v700zM321 925h160l120 -170h-121l-78 97l-80 -97h-121z" />
    <glyph glyph-name="hcircumflex" unicode="&#x125;" horiz-adv-x="676" 
d="M76 760h159v-295q43 89 182 89q102 0 146 -47.5t44 -152.5v-354h-159v318q0 57 -23 80.5t-80 23.5q-60 0 -85 -28.5t-25 -89.5v-304h-159v760zM78 960h156l112 -160h-121l-68 87l-70 -87h-121z" />
    <glyph glyph-name="Hbar" unicode="&#x126;" horiz-adv-x="803" 
d="M91 505h-64v103h64v92h164v-92h293v92h164v-92h64v-103h-64v-505h-164v286h-293v-286h-164v505zM548 428v77h-293v-77h293z" />
    <glyph glyph-name="hbar" unicode="&#x127;" horiz-adv-x="676" 
d="M76 605h-73v91h73v64h159v-64h237v-91h-237v-167q21 44 66.5 67t115.5 23q102 0 146 -48t44 -153v-327h-159v291q0 57 -23 80.5t-80 23.5q-60 0 -85 -28.5t-25 -89.5v-277h-159v605z" />
    <glyph glyph-name="Imacron" unicode="&#x12a;" horiz-adv-x="349" 
d="M93 700h163v-700h-163v700zM0 892h350v-104h-350v104z" />
    <glyph glyph-name="imacron" unicode="&#x12b;" horiz-adv-x="321" 
d="M80 540h160v-540h-160v540zM-9 750h340v-100h-340v100z" />
    <glyph glyph-name="Iogonek" unicode="&#x12e;" horiz-adv-x="349" 
d="M93 700h163v-700h-43q-42 -27 -64 -58.5t-22 -71.5q0 -27 17 -40.5t43 -13.5q34 0 62 16v-75q-17 -8 -41.5 -14.5t-57.5 -6.5q-39 0 -65 10t-41.5 25.5t-21.5 35t-6 38.5q0 25 9 47.5t24.5 42t35.5 36t43 29.5h-35v700z" />
    <glyph glyph-name="iogonek" unicode="&#x12f;" horiz-adv-x="321" 
d="M80 540h160v-540h-44q-38 -26 -59.5 -56t-21.5 -68q0 -26 16 -40.5t41 -14.5q31 0 60 16v-71q-17 -8 -39.5 -14t-54.5 -6q-38 0 -63.5 10t-40.5 25t-21.5 34t-6.5 37q0 48 31.5 86t74.5 62h-32v540zM160 620q-46 0 -67 20t-21 60t21 60t67 20t67 -20t21 -60t-21 -60
t-67 -20z" />
    <glyph glyph-name="Idotaccent" unicode="&#x130;" horiz-adv-x="349" 
d="M93 700h163v-700h-163v700zM175 758q-47 0 -68.5 20.5t-21.5 61.5t21.5 61.5t68.5 20.5t68.5 -20.5t21.5 -61.5t-21.5 -61.5t-68.5 -20.5z" />
    <glyph glyph-name="dotlessi" unicode="&#x131;" horiz-adv-x="321" 
d="M80 540h160v-540h-160v540z" />
    <glyph glyph-name="Jcircumflex" unicode="&#x134;" horiz-adv-x="462" 
d="M207 700h164v-486q0 -60 -11.5 -102t-38 -68.5t-69 -39t-104.5 -12.5q-43 0 -71.5 4.5t-51.5 11.5v157q14 -11 41.5 -20.5t56.5 -9.5q45 0 64.5 20t19.5 80v465zM209 925h160l120 -170h-121l-78 97l-80 -97h-121z" />
    <glyph glyph-name="jcircumflex" unicode="&#x135;" horiz-adv-x="327" 
d="M86 540h160v-546q0 -51 -11 -86t-32.5 -56t-53.5 -30t-75 -9q-40 0 -64 4.5t-35 9.5v131q24 -11 57 -11q29 0 41.5 12.5t12.5 42.5v538zM87 780h156l112 -160h-121l-68 87l-70 -87h-121z" />
    <glyph glyph-name="Kcommaaccent" unicode="&#x136;" horiz-adv-x="721" 
d="M91 700h164v-278h56l185 278h191l-240 -331l263 -369h-195l-201 290h-59v-290h-164v700zM286 -204q34 0 58 8.5t28 32.5q-5 -1 -10 -1h-10q-42 0 -64 14t-22 40t26 41.5t68 15.5q43 0 70 -21t27 -66q0 -52 -41 -86.5t-111 -34.5h-9t-10 1v56v0z" />
    <glyph glyph-name="kcommaaccent" unicode="&#x137;" horiz-adv-x="635" 
d="M235 760v-414h48l139 194h178l-189 -256l209 -284h-184l-153 211h-48v-211h-159v760h159zM250 -197q32 0 54 8.5t25 31.5q-5 -1 -9.5 -1h-9.5q-37 0 -58 13t-21 38t24 39.5t63 14.5q40 0 65.5 -20t25.5 -62q0 -50 -38.5 -83t-104.5 -33h-8t-8 1v53v0z" />
    <glyph glyph-name="Lacute" unicode="&#x139;" horiz-adv-x="585" 
d="M91 700h164v-550h308v-150h-472v700zM215 925h192l-178 -170h-122z" />
    <glyph glyph-name="lacute" unicode="&#x13a;" horiz-adv-x="374" 
d="M235 173q0 -32 12 -42.5t40 -10.5q16 0 30.5 3t26.5 6v-128q-11 -5 -36 -10t-60 -5q-41 0 -73 7.5t-54 25.5t-33.5 49t-11.5 78v614h159v-587v0zM190 977h190l-170 -160h-120z" />
    <glyph glyph-name="Lcommaaccent" unicode="&#x13b;" horiz-adv-x="585" 
d="M91 700h164v-550h308v-150h-472v700zM252 -204q34 0 58 8.5t28 32.5q-5 -1 -10 -1h-10q-42 0 -64 14t-22 40t26 41.5t68 15.5q43 0 70 -21t27 -66q0 -52 -41 -86.5t-111 -34.5h-9t-10 1v56v0z" />
    <glyph glyph-name="lcommaaccent" unicode="&#x13c;" horiz-adv-x="374" 
d="M235 173q0 -32 12 -42.5t40 -10.5q16 0 30.5 3t26.5 6v-128q-11 -5 -36 -10t-60 -5q-41 0 -73 7.5t-54 25.5t-33.5 49t-11.5 78v614h159v-587v0zM157 -197q32 0 54 8.5t25 31.5q-5 -1 -9.5 -1h-9.5q-37 0 -58 13t-21 38t24 39.5t63 14.5q40 0 65.5 -20t25.5 -62
q0 -50 -38.5 -83t-104.5 -33h-8t-8 1v53v0z" />
    <glyph glyph-name="Lcaron" unicode="&#x13d;" horiz-adv-x="585" 
d="M91 700h164v-550h308v-150h-472v700zM391 700h144l-86 -200h-104z" />
    <glyph glyph-name="lcaron" unicode="&#x13e;" horiz-adv-x="407" 
d="M235 173q0 -32 12 -42.5t40 -10.5q16 0 30.5 3t26.5 6v-128q-11 -5 -36 -10t-60 -5q-41 0 -73 7.5t-54 25.5t-33.5 49t-11.5 78v614h159v-587v0zM341 760h144l-86 -200h-104z" />
    <glyph glyph-name="Ldot" unicode="&#x13f;" horiz-adv-x="585" 
d="M91 700h164v-550h308v-150h-472v700zM370 368q0 42 23.5 65t66.5 23q42 0 66 -23.5t24 -64.5q0 -42 -23 -65.5t-67 -23.5q-42 0 -66 24t-24 65z" />
    <glyph glyph-name="ldot" unicode="&#x140;" horiz-adv-x="476" 
d="M235 173q0 -32 12 -42.5t40 -10.5q16 0 30.5 3t26.5 6v-128q-11 -5 -36 -10t-60 -5q-41 0 -73 7.5t-54 25.5t-33.5 49t-11.5 78v614h159v-587v0zM300.307 376.879q0 44.2148 25.0498 68.4277q25.0488 24.2129 70.8838 24.2129q44.7676 0 70.3496 -24.7393
t25.582 -67.9014q0 -44.2148 -24.5156 -68.9541t-71.416 -24.7393q-44.7695 0 -70.3516 25.2656t-25.582 68.4277z" />
    <glyph glyph-name="Lslash" unicode="&#x141;" horiz-adv-x="605" 
d="M111 238l-91 -56v109l91 56v353h164v-252l161 100v-108l-161 -100v-190h309v-150h-473v238z" />
    <glyph glyph-name="lslash" unicode="&#x142;" horiz-adv-x="413" 
d="M262 177q0 -32 11.5 -42.5t39.5 -10.5q16 0 31 3t27 6v-128q-12 -5 -37 -10t-60 -5q-41 0 -73 7.5t-54 25.5t-33.5 49t-11.5 78v81l-79 -49v109l79 49v423h160v-325l109 68v-109l-109 -68v-152v0z" />
    <glyph glyph-name="Nacute" unicode="&#x143;" horiz-adv-x="800" 
d="M91 700h177l231 -366q16 -26 29 -52t26 -50q-2 26 -3.5 55t-1.5 58v355h160v-700h-171l-233 370q-16 24 -31 54t-29 57q2 -26 3.5 -54.5t1.5 -57.5v-369h-159v700zM447 925h192l-178 -170h-122z" />
    <glyph glyph-name="nacute" unicode="&#x144;" horiz-adv-x="676" 
d="M76 540h154l5 -76q25 50 70.5 70t104.5 20q97 0 147 -45t50 -150v-359h-159v305q0 33 -5 55.5t-17 36t-32 19.5t-50 6q-59 0 -84 -29.5t-25 -87.5v-305h-159v540zM377 790h190l-170 -160h-120z" />
    <glyph glyph-name="Ncommaaccent" unicode="&#x145;" horiz-adv-x="800" 
d="M91 700h177l231 -366q16 -26 29 -52t26 -50q-2 26 -3.5 55t-1.5 58v355h160v-700h-171l-233 370q-16 24 -31 54t-29 57q2 -26 3.5 -54.5t1.5 -57.5v-369h-159v700zM326 -204q34 0 58 8.5t28 32.5q-5 -1 -10 -1h-10q-42 0 -64 14t-22 40t26 41.5t68 15.5q43 0 70 -21
t27 -66q0 -52 -41 -86.5t-111 -34.5h-9t-10 1v56v0z" />
    <glyph glyph-name="ncommaaccent" unicode="&#x146;" horiz-adv-x="676" 
d="M76 540h154l5 -76q25 50 70.5 70t104.5 20q97 0 147 -45t50 -150v-359h-159v305q0 33 -5 55.5t-17 36t-32 19.5t-50 6q-59 0 -84 -29.5t-25 -87.5v-305h-159v540zM270 -197q32 0 54 8.5t25 31.5q-5 -1 -9.5 -1h-9.5q-37 0 -58 13t-21 38t24 39.5t63 14.5q40 0 65.5 -20
t25.5 -62q0 -50 -38.5 -83t-104.5 -33h-8t-8 1v53v0z" />
    <glyph glyph-name="Ncaron" unicode="&#x147;" horiz-adv-x="800" 
d="M91 700h177l231 -366q16 -26 29 -52t26 -50q-2 26 -3.5 55t-1.5 58v355h160v-700h-171l-233 370q-16 24 -31 54t-29 57q2 -26 3.5 -54.5t1.5 -57.5v-369h-159v700zM200 935h121l79 -97l79 97h121l-120 -170h-160z" />
    <glyph glyph-name="ncaron" unicode="&#x148;" horiz-adv-x="676" 
d="M76 540h154l5 -76q25 50 70.5 70t104.5 20q97 0 147 -45t50 -150v-359h-159v305q0 33 -5 55.5t-17 36t-32 19.5t-50 6q-59 0 -84 -29.5t-25 -87.5v-305h-159v540zM151 790h121l69 -87l69 87h121l-112 -160h-156z" />
    <glyph glyph-name="Omacron" unicode="&#x14c;" horiz-adv-x="793" 
d="M50 350q0 190 85.5 277t262.5 87q94 0 159.5 -21.5t106.5 -66t59.5 -113t18.5 -163.5q0 -99 -22 -168t-65.5 -112.5t-108 -63.5t-148.5 -20q-170 0 -259 86.5t-89 277.5zM224 349q0 -65 12.5 -108t35.5 -68t55.5 -35t73.5 -10t72.5 10.5t52.5 36t32 68t11 106.5t-11 107
t-33 69t-55 36.5t-76 10.5q-86 0 -128 -50.5t-42 -172.5zM221 892h350v-104h-350v104z" />
    <glyph glyph-name="omacron" unicode="&#x14d;" horiz-adv-x="675" 
d="M47 271q0 144 74 213.5t219 69.5q150 0 219 -68.5t69 -215.5t-71.5 -215.5t-219.5 -68.5q-152 0 -221 70t-69 215zM211 267q0 -77 29 -115.5t99 -38.5q67 0 96 36t29 117v5q0 82 -27.5 119t-99.5 37q-71 0 -98.5 -37.5t-27.5 -118.5v-4zM167 750h340v-100h-340v100z" />
    <glyph glyph-name="Ohungarumlaut" unicode="&#x150;" horiz-adv-x="793" 
d="M50 350q0 190 85.5 277t262.5 87q94 0 159.5 -21.5t106.5 -66t59.5 -113t18.5 -163.5q0 -99 -22 -168t-65.5 -112.5t-108 -63.5t-148.5 -20q-170 0 -259 86.5t-89 277.5zM224 349q0 -65 12.5 -108t35.5 -68t55.5 -35t73.5 -10t72.5 10.5t52.5 36t32 68t11 106.5t-11 107
t-33 69t-55 36.5t-76 10.5q-86 0 -128 -50.5t-42 -172.5zM266 925h172l-100 -170h-122zM524 925h192l-160 -170h-132z" />
    <glyph glyph-name="ohungarumlaut" unicode="&#x151;" horiz-adv-x="675" 
d="M47 271q0 144 74 213.5t219 69.5q150 0 219 -68.5t69 -215.5t-71.5 -215.5t-219.5 -68.5q-152 0 -221 70t-69 215zM211 267q0 -77 29 -115.5t99 -38.5q67 0 96 36t29 117v5q0 82 -27.5 119t-99.5 37q-71 0 -98.5 -37.5t-27.5 -118.5v-4zM217 780h170l-100 -160h-120z
M457 780h190l-160 -160h-130z" />
    <glyph glyph-name="OE" unicode="&#x152;" horiz-adv-x="981" 
d="M392 714q30 0 58 -4t54 -10h429v-142h-307v-138h272v-132h-272v-146h310v-142h-430q-26 -6 -55 -10t-60 -4q-169 0 -258 86.5t-89 277.5q0 190 85 277t263 87zM394 128q19 0 36 2.5t32 6.5v425q-16 5 -35 7.5t-39 2.5q-44 0 -76 -12t-53 -38.5t-31.5 -69t-10.5 -103.5
q0 -65 12.5 -108t35.5 -68t55.5 -35t73.5 -10z" />
    <glyph glyph-name="oe" unicode="&#x153;" horiz-adv-x="1062" 
d="M47 271q0 144 74 213.5t219 69.5q70 0 122.5 -15.5t87.5 -50.5q69 66 202 66q75 0 125.5 -18t82 -51.5t45 -81t13.5 -106.5v-65h-389q2 -63 39.5 -92t114.5 -29q30 0 59 4.5t55 13t47.5 19.5t36.5 23v-136q-20 -17 -78 -33t-142 -16q-147 0 -214 66q-36 -34 -89 -50
t-121 -16q-152 0 -221 70t-69 215zM749 435q-117 0 -121 -112h231q1 54 -23.5 83t-86.5 29zM211 267q0 -77 29 -115.5t99 -38.5q67 0 96 36t29 117v5q0 82 -27.5 119t-99.5 37q-71 0 -98.5 -37.5t-27.5 -118.5v-4z" />
    <glyph glyph-name="Racute" unicode="&#x154;" horiz-adv-x="701" 
d="M91 0v697q66 3 122 5.5t116 2.5q82 0 138 -14.5t89.5 -43t48 -72t14.5 -101.5q0 -43 -5.5 -77.5t-19 -61.5t-35.5 -47t-55 -34l171 -254h-181l-152 236h-87v-236h-164zM328 365q35 0 58.5 6t37.5 18t20 31t6 45q0 25 -5.5 43t-19.5 29.5t-38 17t-61 5.5q-22 0 -38.5 -1
t-36.5 -3v-191h77zM398 925h192l-178 -170h-122z" />
    <glyph glyph-name="racute" unicode="&#x155;" horiz-adv-x="476" 
d="M76 540h148l6 -80q21 51 59.5 72.5t89.5 21.5q17 0 31 -2t28 -5v-160q-15 13 -37.5 20.5t-55.5 7.5q-60 0 -85 -30.5t-25 -96.5v-288h-159v540zM277 790h190l-170 -160h-120z" />
    <glyph glyph-name="Rcommaaccent" unicode="&#x156;" horiz-adv-x="701" 
d="M91 0v697q66 3 122 5.5t116 2.5q82 0 138 -14.5t89.5 -43t48 -72t14.5 -101.5q0 -43 -5.5 -77.5t-19 -61.5t-35.5 -47t-55 -34l171 -254h-181l-152 236h-87v-236h-164zM328 365q35 0 58.5 6t37.5 18t20 31t6 45q0 25 -5.5 43t-19.5 29.5t-38 17t-61 5.5q-22 0 -38.5 -1
t-36.5 -3v-191h77zM277 -204q34 0 58 8.5t28 32.5q-5 -1 -10 -1h-10q-42 0 -64 14t-22 40t26 41.5t68 15.5q43 0 70 -21t27 -66q0 -52 -41 -86.5t-111 -34.5h-9t-10 1v56v0z" />
    <glyph glyph-name="rcommaaccent" unicode="&#x157;" horiz-adv-x="476" 
d="M76 540h148l6 -80q21 51 59.5 72.5t89.5 21.5q17 0 31 -2t28 -5v-160q-15 13 -37.5 20.5t-55.5 7.5q-60 0 -85 -30.5t-25 -96.5v-288h-159v540zM86 -197q32 0 54 8.5t25 31.5q-5 -1 -9.5 -1h-9.5q-37 0 -58 13t-21 38t24 39.5t63 14.5q40 0 65.5 -20t25.5 -62
q0 -50 -38.5 -83t-104.5 -33h-8t-8 1v53v0z" />
    <glyph glyph-name="Rcaron" unicode="&#x158;" horiz-adv-x="701" 
d="M91 0v697q66 3 122 5.5t116 2.5q82 0 138 -14.5t89.5 -43t48 -72t14.5 -101.5q0 -43 -5.5 -77.5t-19 -61.5t-35.5 -47t-55 -34l171 -254h-181l-152 236h-87v-236h-164zM328 365q35 0 58.5 6t37.5 18t20 31t6 45q0 25 -5.5 43t-19.5 29.5t-38 17t-61 5.5q-22 0 -38.5 -1
t-36.5 -3v-191h77zM151 935h121l79 -97l79 97h121l-120 -170h-160z" />
    <glyph glyph-name="rcaron" unicode="&#x159;" horiz-adv-x="476" 
d="M76 540h148l6 -80q21 51 59.5 72.5t89.5 21.5q17 0 31 -2t28 -5v-160q-15 13 -37.5 20.5t-55.5 7.5q-60 0 -85 -30.5t-25 -96.5v-288h-159v540zM56 790h121l69 -87l69 87h121l-112 -160h-156z" />
    <glyph glyph-name="Sacute" unicode="&#x15a;" horiz-adv-x="640" 
d="M409 194q0 30 -25.5 46.5t-63.5 29t-83 26.5t-83 39t-63.5 66.5t-25.5 108.5q0 47 14.5 84.5t47 64t84.5 40.5t127 14q67 0 122.5 -9.5t91.5 -24.5v-161q-38 26 -91 43.5t-110 17.5q-36 0 -59 -5t-36.5 -14t-19 -21t-5.5 -26q0 -29 26.5 -45t66 -28.5t86 -26t86 -39
t66 -66.5t26.5 -108q0 -101 -68 -157t-220 -56q-68 0 -131 13t-101 35v167q13 -12 34 -26t49 -26t63 -20.5t77 -8.5q63 0 90.5 20t27.5 53zM374 925h192l-178 -170h-122z" />
    <glyph glyph-name="sacute" unicode="&#x15b;" horiz-adv-x="555" 
d="M473 386q-33 20 -73 34.5t-96 14.5q-48 0 -64.5 -10.5t-16.5 -33.5q0 -21 21 -31t52.5 -17.5t68.5 -16t68.5 -26.5t52.5 -49.5t21 -83.5q0 -44 -12 -77.5t-40.5 -56.5t-76 -35t-117.5 -12q-45 0 -96.5 7.5t-99.5 26.5v149q32 -26 82.5 -44.5t110.5 -18.5q50 0 68 13.5
t18 39.5q0 20 -21 30.5t-52.5 19t-68.5 17.5t-68.5 27.5t-52.5 49.5t-21 82q0 43 12 75t40 53t73.5 31t113.5 10q44 0 90 -7t84 -18v-143zM317 790h190l-170 -160h-120z" />
    <glyph glyph-name="Scircumflex" unicode="&#x15c;" horiz-adv-x="640" 
d="M409 194q0 30 -25.5 46.5t-63.5 29t-83 26.5t-83 39t-63.5 66.5t-25.5 108.5q0 47 14.5 84.5t47 64t84.5 40.5t127 14q67 0 122.5 -9.5t91.5 -24.5v-161q-38 26 -91 43.5t-110 17.5q-36 0 -59 -5t-36.5 -14t-19 -21t-5.5 -26q0 -29 26.5 -45t66 -28.5t86 -26t86 -39
t66 -66.5t26.5 -108q0 -101 -68 -157t-220 -56q-68 0 -131 13t-101 35v167q13 -12 34 -26t49 -26t63 -20.5t77 -8.5q63 0 90.5 20t27.5 53zM247 925h160l120 -170h-121l-78 97l-80 -97h-121z" />
    <glyph glyph-name="scircumflex" unicode="&#x15d;" horiz-adv-x="555" 
d="M473 386q-33 20 -73 34.5t-96 14.5q-48 0 -64.5 -10.5t-16.5 -33.5q0 -21 21 -31t52.5 -17.5t68.5 -16t68.5 -26.5t52.5 -49.5t21 -83.5q0 -44 -12 -77.5t-40.5 -56.5t-76 -35t-117.5 -12q-45 0 -96.5 7.5t-99.5 26.5v149q32 -26 82.5 -44.5t110.5 -18.5q50 0 68 13.5
t18 39.5q0 20 -21 30.5t-52.5 19t-68.5 17.5t-68.5 27.5t-52.5 49.5t-21 82q0 43 12 75t40 53t73.5 31t113.5 10q44 0 90 -7t84 -18v-143zM207 780h156l112 -160h-121l-68 87l-70 -87h-121z" />
    <glyph glyph-name="Scedilla" unicode="&#x15e;" horiz-adv-x="640" 
d="M271 -12q-61 2 -115 14.5t-88 32.5v167q13 -12 34 -26t49 -26t63 -20.5t77 -8.5q63 0 90.5 20t27.5 53q0 30 -25.5 46.5t-63.5 29t-83 26.5t-83 39t-63.5 66.5t-25.5 108.5q0 47 14.5 84.5t47 64t84.5 40.5t127 14q67 0 122.5 -9.5t91.5 -24.5v-161q-38 26 -91 43.5
t-110 17.5q-36 0 -59 -5t-36.5 -14t-19 -21t-5.5 -26q0 -29 26.5 -45t66 -28.5t86 -26t86 -39t66 -66.5t26.5 -108q0 -92 -54.5 -146t-176.5 -64l-8 -44q22 0 43 -5t37 -16.5t26 -30t10 -45.5q0 -26 -11 -46.5t-30.5 -35.5t-46 -23t-57.5 -8q-34 0 -58.5 4.5t-44.5 12.5
l12 69q31 -13 63 -13q24 0 41.5 10t17.5 32q0 23 -19.5 30.5t-42.5 7.5h-17t-17 -2z" />
    <glyph glyph-name="scedilla" unicode="&#x15f;" horiz-adv-x="555" 
d="M224 -13q-38 2 -79.5 10t-79.5 23v149q32 -26 82.5 -44.5t110.5 -18.5q50 0 68 13.5t18 39.5q0 20 -21 30.5t-52.5 19t-68.5 17.5t-68.5 27.5t-52.5 49.5t-21 82q0 43 12 75t40 53t73.5 31t113.5 10q44 0 90 -7t84 -18v-143q-33 20 -73 34.5t-96 14.5q-48 0 -64.5 -10.5
t-16.5 -33.5q0 -21 21 -31t52.5 -17.5t68.5 -16t68.5 -26.5t52.5 -49.5t21 -83.5q0 -40 -10 -71.5t-33.5 -54t-62 -36t-95.5 -17.5l-8 -40q22 0 42 -5t35 -16.5t24 -29t9 -43.5q0 -48 -36.5 -78t-96.5 -30q-29 0 -55 4t-46 12l11 66q14 -5 28.5 -8.5t31.5 -3.5q23 0 38.5 11
t15.5 33t-18 29.5t-40 7.5h-16t-16 -1z" />
    <glyph glyph-name="Scaron" unicode="&#x160;" horiz-adv-x="640" 
d="M409 194q0 30 -25.5 46.5t-63.5 29t-83 26.5t-83 39t-63.5 66.5t-25.5 108.5q0 47 14.5 84.5t47 64t84.5 40.5t127 14q67 0 122.5 -9.5t91.5 -24.5v-161q-38 26 -91 43.5t-110 17.5q-36 0 -59 -5t-36.5 -14t-19 -21t-5.5 -26q0 -29 26.5 -45t66 -28.5t86 -26t86 -39
t66 -66.5t26.5 -108q0 -101 -68 -157t-220 -56q-68 0 -131 13t-101 35v167q13 -12 34 -26t49 -26t63 -20.5t77 -8.5q63 0 90.5 20t27.5 53zM127 935h121l79 -97l79 97h121l-120 -170h-160z" />
    <glyph glyph-name="scaron" unicode="&#x161;" horiz-adv-x="555" 
d="M473 386q-33 20 -73 34.5t-96 14.5q-48 0 -64.5 -10.5t-16.5 -33.5q0 -21 21 -31t52.5 -17.5t68.5 -16t68.5 -26.5t52.5 -49.5t21 -83.5q0 -44 -12 -77.5t-40.5 -56.5t-76 -35t-117.5 -12q-45 0 -96.5 7.5t-99.5 26.5v149q32 -26 82.5 -44.5t110.5 -18.5q50 0 68 13.5
t18 39.5q0 20 -21 30.5t-52.5 19t-68.5 17.5t-68.5 27.5t-52.5 49.5t-21 82q0 43 12 75t40 53t73.5 31t113.5 10q44 0 90 -7t84 -18v-143zM95 790h121l69 -87l69 87h121l-112 -160h-156z" />
    <glyph glyph-name="Tcedilla" unicode="&#x162;" horiz-adv-x="623" 
d="M230 559h-202v141h567v-141h-202v-559h-39l-10 -54q22 0 43 -5t37 -16.5t26 -30t10 -45.5q0 -26 -11 -46.5t-30.5 -35.5t-46 -23t-57.5 -8q-34 0 -58.5 4.5t-44.5 12.5l12 69q31 -13 63 -13q24 0 41.5 10t17.5 32q0 23 -19.5 30.5t-42.5 7.5h-17t-17 -2l18 113h-38v559z
" />
    <glyph glyph-name="tcedilla" unicode="&#x163;" horiz-adv-x="508" 
d="M265 -10q-73 10 -104.5 53.5t-31.5 131.5v234h-101v131h101v92l160 53v-145h167v-131h-167v-204q0 -44 16.5 -62.5t54.5 -18.5q30 0 56.5 7.5t46.5 19.5v-138q-15 -8 -45.5 -16t-71.5 -10l-8 -39q22 0 42 -5t35 -16.5t24 -29t9 -43.5q0 -48 -36.5 -78t-96.5 -30
q-29 0 -55 4t-46 12l11 66q14 -5 28.5 -8.5t31.5 -3.5q23 0 38.5 11t15.5 33t-18 29.5t-40 7.5h-16t-16 -1z" />
    <glyph glyph-name="Tcaron" unicode="&#x164;" horiz-adv-x="623" 
d="M230 559h-202v141h567v-141h-202v-559h-163v559zM111 935h121l79 -97l79 97h121l-120 -170h-160z" />
    <glyph glyph-name="tcaron" unicode="&#x165;" horiz-adv-x="548" 
d="M129 409h-101v131h101v92l160 53v-145h167v-131h-167v-204q0 -44 16.5 -62.5t54.5 -18.5q30 0 56.5 7.5t46.5 19.5v-138q-17 -9 -55 -18t-89 -9t-87 10.5t-59 33t-33.5 58.5t-10.5 87v234zM395 800h144l-86 -200h-104z" />
    <glyph glyph-name="Umacron" unicode="&#x16a;" horiz-adv-x="755" 
d="M86 700h164v-404q0 -51 7.5 -83.5t23.5 -51t41 -25.5t60 -7q33 0 56.5 6.5t38 24.5t21.5 50t7 82v408h164v-419q0 -86 -19.5 -142.5t-57 -90t-91.5 -47.5t-123 -14q-72 0 -127 14.5t-91.5 48t-55 90t-18.5 140.5v420zM202 892h350v-104h-350v104z" />
    <glyph glyph-name="umacron" unicode="&#x16b;" horiz-adv-x="676" 
d="M441 79q-28 -48 -71.5 -70.5t-110.5 -22.5q-97 0 -142.5 49.5t-45.5 155.5v349h159v-311q0 -58 22 -83.5t79 -25.5t83 28t26 88v304h159v-540h-153zM165 750h340v-100h-340v100z" />
    <glyph glyph-name="Ubreve" unicode="&#x16c;" horiz-adv-x="755" 
d="M86 700h164v-404q0 -51 7.5 -83.5t23.5 -51t41 -25.5t60 -7q33 0 56.5 6.5t38 24.5t21.5 50t7 82v408h164v-419q0 -86 -19.5 -142.5t-57 -90t-91.5 -47.5t-123 -14q-72 0 -127 14.5t-91.5 48t-55 90t-18.5 140.5v420zM377 755q-143 0 -180 145l94 25q11 -38 33.5 -54
t52.5 -16t52.5 16t33.5 54l94 -25q-37 -145 -180 -145z" />
    <glyph glyph-name="ubreve" unicode="&#x16d;" horiz-adv-x="676" 
d="M441 79q-28 -48 -71.5 -70.5t-110.5 -22.5q-97 0 -142.5 49.5t-45.5 155.5v349h159v-311q0 -58 22 -83.5t79 -25.5t83 28t26 88v304h159v-540h-153zM335 615q-143 0 -180 145l92 25q11 -38 34.5 -55t53.5 -17t53.5 17t34.5 55l92 -25q-37 -145 -180 -145z" />
    <glyph glyph-name="Uring" unicode="&#x16e;" horiz-adv-x="755" 
d="M86 700h164v-404q0 -51 7.5 -83.5t23.5 -51t41 -25.5t60 -7q33 0 56.5 6.5t38 24.5t21.5 50t7 82v408h164v-419q0 -86 -19.5 -142.5t-57 -90t-91.5 -47.5t-123 -14q-72 0 -127 14.5t-91.5 48t-55 90t-18.5 140.5v420zM259 840q0 25 9 47t24.5 37.5t37 24.5t47.5 9
q25 0 47 -9t37.5 -24.5t24.5 -37.5t9 -47q0 -26 -9 -47.5t-24.5 -37t-37.5 -24.5t-47 -9q-26 0 -47.5 9t-37 24.5t-24.5 37t-9 47.5zM333 840q0 -21 12 -33t32 -12t32 12t12 33t-12 33t-32 12t-32 -12t-12 -33z" />
    <glyph glyph-name="uring" unicode="&#x16f;" horiz-adv-x="676" 
d="M441 79q-28 -48 -71.5 -70.5t-110.5 -22.5q-97 0 -142.5 49.5t-45.5 155.5v349h159v-311q0 -58 22 -83.5t79 -25.5t83 28t26 88v304h159v-540h-153zM219 700q0 52 32 84t84 32t84 -32t32 -84t-32 -84t-84 -32t-84 32t-32 84zM291 700q0 -20 12 -32t32 -12t32 12t12 32
t-12 32t-32 12t-32 -12t-12 -32z" />
    <glyph glyph-name="Uhungarumlaut" unicode="&#x170;" horiz-adv-x="755" 
d="M86 700h164v-404q0 -51 7.5 -83.5t23.5 -51t41 -25.5t60 -7q33 0 56.5 6.5t38 24.5t21.5 50t7 82v408h164v-419q0 -86 -19.5 -142.5t-57 -90t-91.5 -47.5t-123 -14q-72 0 -127 14.5t-91.5 48t-55 90t-18.5 140.5v420zM247 925h172l-100 -170h-122zM505 925h192l-160 -170
h-132z" />
    <glyph glyph-name="uhungarumlaut" unicode="&#x171;" horiz-adv-x="676" 
d="M441 79q-28 -48 -71.5 -70.5t-110.5 -22.5q-97 0 -142.5 49.5t-45.5 155.5v349h159v-311q0 -58 22 -83.5t79 -25.5t83 28t26 88v304h159v-540h-153zM215 780h170l-100 -160h-120zM455 780h190l-160 -160h-130z" />
    <glyph glyph-name="Uogonek" unicode="&#x172;" horiz-adv-x="755" 
d="M86 700h164v-404q0 -51 7.5 -83.5t23.5 -51t41 -25.5t60 -7q33 0 56.5 6.5t38 24.5t21.5 50t7 82v408h164v-419q0 -72 -14 -123.5t-41 -85.5t-66.5 -53t-89.5 -26q-36 -26 -55 -55.5t-19 -67.5q0 -27 17 -40.5t43 -13.5q34 0 62 16v-75q-17 -8 -41.5 -14.5t-57.5 -6.5
q-39 0 -65 10t-41.5 25.5t-21.5 35t-6 38.5q0 44 26.5 80t64.5 62q-69 1 -121 16t-87 49.5t-52.5 90t-17.5 137.5v420z" />
    <glyph glyph-name="uogonek" unicode="&#x173;" horiz-adv-x="676" 
d="M441 79q-28 -48 -71.5 -70.5t-110.5 -22.5q-97 0 -142.5 49.5t-45.5 155.5v349h159v-311q0 -58 22 -83.5t79 -25.5t83 28t26 88v304h159v-540h-29q-38 -26 -59.5 -56t-21.5 -68q0 -26 16 -40.5t41 -14.5q31 0 60 16v-71q-17 -8 -39.5 -14t-54.5 -6q-38 0 -63.5 10
t-40.5 25t-21.5 34t-6.5 37q0 48 31.5 86t74.5 62h-40z" />
    <glyph glyph-name="Ydieresis" unicode="&#x178;" horiz-adv-x="666" 
d="M252 252l-242 448h187l139 -267l134 267h186l-240 -448v-252h-164v252zM219 762q-45 0 -65.5 19.5t-20.5 58.5t20.5 58.5t65.5 19.5t65.5 -19.5t20.5 -58.5t-20.5 -58.5t-65.5 -19.5zM447 762q-45 0 -65.5 19.5t-20.5 58.5t20.5 58.5t65.5 19.5t65.5 -19.5t20.5 -58.5
t-20.5 -58.5t-65.5 -19.5z" />
    <glyph glyph-name="Zacute" unicode="&#x179;" horiz-adv-x="650" 
d="M47 93l332 465h-320v142h539v-93l-332 -465h338v-142h-557v93zM373 925h192l-178 -170h-122z" />
    <glyph glyph-name="zacute" unicode="&#x17a;" horiz-adv-x="579" 
d="M47 99l268 309h-256v132h471v-99l-269 -308h273v-133h-487v99zM322 790h190l-170 -160h-120z" />
    <glyph glyph-name="Zdotaccent" unicode="&#x17b;" horiz-adv-x="650" 
d="M47 93l332 465h-320v142h539v-93l-332 -465h338v-142h-557v93zM326 758q-47 0 -68.5 20.5t-21.5 61.5t21.5 61.5t68.5 20.5t68.5 -20.5t21.5 -61.5t-21.5 -61.5t-68.5 -20.5z" />
    <glyph glyph-name="zdotaccent" unicode="&#x17c;" horiz-adv-x="579" 
d="M47 99l268 309h-256v132h471v-99l-269 -308h273v-133h-487v99zM290 620q-46 0 -67 20t-21 60t21 60t67 20t67 -20t21 -60t-21 -60t-67 -20z" />
    <glyph glyph-name="Zcaron" unicode="&#x17d;" horiz-adv-x="650" 
d="M47 93l332 465h-320v142h539v-93l-332 -465h338v-142h-557v93zM126 935h121l79 -97l79 97h121l-120 -170h-160z" />
    <glyph glyph-name="zcaron" unicode="&#x17e;" horiz-adv-x="579" 
d="M47 99l268 309h-256v132h471v-99l-269 -308h273v-133h-487v99zM100 790h121l69 -87l69 87h121l-112 -160h-156z" />
    <glyph glyph-name="uni018F" unicode="&#x18f;" horiz-adv-x="715" 
d="M501 394q-2 31 -12 62.5t-33.5 57.5t-62 42.5t-96.5 16.5q-54 0 -103.5 -9t-88.5 -27v147q106 28 217 28q112 0 181 -33t106.5 -85.5t50 -117.5t12.5 -128q0 -71 -18.5 -136.5t-57.5 -115t-100 -79t-146 -29.5q-145 0 -226.5 87t-81.5 270v49h459zM204 276
q1 -74 35 -113.5t113 -39.5q28 0 54 8.5t46.5 27t33.5 48.5t16 73h-298v-4z" />
    <glyph glyph-name="florin" unicode="&#x192;" horiz-adv-x="568" 
d="M-5 -87q16 -3 38 -3q14 0 27.5 3t25.5 12t21 27t15 48l76 385h-89l26 125h88l13 63q16 84 68.5 134.5t151.5 50.5q28 0 48.5 -2.5t41.5 -6.5l-24 -122q-6 2 -18.5 4t-28.5 2q-23 0 -39.5 -4.5t-27.5 -15.5t-18 -29t-12 -45l-6 -29h122l-25 -125h-122l-75 -381
q-11 -55 -30 -97t-47.5 -70t-68 -42t-92.5 -14q-23 0 -39 2t-27 4z" />
    <glyph glyph-name="uni01DD" unicode="&#x1dd;" horiz-adv-x="641" 
d="M433 309q-3 63 -40.5 91.5t-114.5 28.5q-29 0 -58 -4.5t-55 -13t-47.5 -19.5t-36.5 -23v136q10 9 30 17.5t48.5 15.5t64 11.5t77.5 4.5q80 0 135.5 -18t90.5 -54t51 -91t16 -129q0 -141 -73.5 -208.5t-210.5 -67.5q-75 0 -126 18t-82 52t-44.5 81.5t-13.5 106.5v65h389z
M313 106q116 0 120 112h-231q0 -53 24.5 -82.5t86.5 -29.5z" />
    <glyph glyph-name="Gcaron" unicode="&#x1e6;" horiz-adv-x="717" 
d="M390 395h270v-355q-17 -9 -42 -18t-57.5 -17t-72 -13t-83.5 -5q-183 0 -269 85t-86 272q0 94 20.5 163.5t65 115.5t115 68t170.5 22q74 0 121 -10t71 -21v-157q-36 22 -81 34.5t-100 12.5q-58 0 -98.5 -12.5t-66 -38.5t-37 -68t-11.5 -100q0 -122 48 -173.5t151 -51.5
q34 0 57.5 4t41.5 9v122h-127v132zM176 935h121l79 -97l79 97h121l-120 -170h-160z" />
    <glyph glyph-name="gcaron" unicode="&#x1e7;" horiz-adv-x="697" 
d="M100 -11q25 -16 78 -33t134 -17q42 0 71 7.5t46 21.5t24.5 35.5t7.5 50.5v51q-23 -35 -66.5 -58t-112.5 -23q-119 0 -177 58t-58 193q0 146 57 212.5t184 66.5q39 0 68 -7t50 -19t35.5 -27.5t23.5 -33.5l5 73h151v-476q0 -73 -19 -122.5t-58 -79.5t-97.5 -43t-136.5 -13
q-67 0 -123.5 11t-86.5 22v150zM337 152q63 0 94 28.5t31 96.5v25q0 69 -31 96.5t-95 27.5q-63 0 -93 -31t-30 -109q0 -74 32.5 -104t91.5 -30zM123 790h121l69 -87l69 87h121l-112 -160h-156z" />
    <glyph glyph-name="Scommaaccent" unicode="&#x218;" horiz-adv-x="640" 
d="M409 194q0 30 -25.5 46.5t-63.5 29t-83 26.5t-83 39t-63.5 66.5t-25.5 108.5q0 47 14.5 84.5t47 64t84.5 40.5t127 14q67 0 122.5 -9.5t91.5 -24.5v-161q-38 26 -91 43.5t-110 17.5q-36 0 -59 -5t-36.5 -14t-19 -21t-5.5 -26q0 -29 26.5 -45t66 -28.5t86 -26t86 -39
t66 -66.5t26.5 -108q0 -101 -68 -157t-220 -56q-68 0 -131 13t-101 35v167q13 -12 34 -26t49 -26t63 -20.5t77 -8.5q63 0 90.5 20t27.5 53zM243 -204q34 0 58 8.5t28 32.5q-5 -1 -10 -1h-10q-42 0 -64 14t-22 40t26 41.5t68 15.5q43 0 70 -21t27 -66q0 -52 -41 -86.5
t-111 -34.5h-9t-10 1v56v0z" />
    <glyph glyph-name="scommaaccent" unicode="&#x219;" horiz-adv-x="555" 
d="M473 386q-33 20 -73 34.5t-96 14.5q-48 0 -64.5 -10.5t-16.5 -33.5q0 -21 21 -31t52.5 -17.5t68.5 -16t68.5 -26.5t52.5 -49.5t21 -83.5q0 -44 -12 -77.5t-40.5 -56.5t-76 -35t-117.5 -12q-45 0 -96.5 7.5t-99.5 26.5v149q32 -26 82.5 -44.5t110.5 -18.5q50 0 68 13.5
t18 39.5q0 20 -21 30.5t-52.5 19t-68.5 17.5t-68.5 27.5t-52.5 49.5t-21 82q0 43 12 75t40 53t73.5 31t113.5 10q44 0 90 -7t84 -18v-143zM208 -197q32 0 54 8.5t25 31.5q-5 -1 -9.5 -1h-9.5q-37 0 -58 13t-21 38t24 39.5t63 14.5q40 0 65.5 -20t25.5 -62q0 -50 -38.5 -83
t-104.5 -33h-8t-8 1v53v0z" />
    <glyph glyph-name="Tcommaaccent" unicode="&#x21a;" horiz-adv-x="623" 
d="M230 559h-202v141h567v-141h-202v-559h-163v559zM237 -204q34 0 58 8.5t28 32.5q-5 -1 -10 -1h-10q-42 0 -64 14t-22 40t26 41.5t68 15.5q43 0 70 -21t27 -66q0 -52 -41 -86.5t-111 -34.5h-9t-10 1v56v0z" />
    <glyph glyph-name="tcommaaccent" unicode="&#x21b;" horiz-adv-x="508" 
d="M129 409h-101v131h101v92l160 53v-145h167v-131h-167v-204q0 -44 16.5 -62.5t54.5 -18.5q30 0 56.5 7.5t46.5 19.5v-138q-17 -9 -55 -18t-89 -9t-87 10.5t-59 33t-33.5 58.5t-10.5 87v234zM247 -197q32 0 54 8.5t25 31.5q-5 -1 -9.5 -1h-9.5q-37 0 -58 13t-21 38t24 39.5
t63 14.5q40 0 65.5 -20t25.5 -62q0 -50 -38.5 -83t-104.5 -33h-8t-8 1v53v0z" />
    <glyph glyph-name="uni0237" unicode="&#x237;" horiz-adv-x="327" 
d="M86 540h160v-546q0 -51 -11 -86t-32.5 -56t-53.5 -30t-75 -9q-40 0 -64 4.5t-35 9.5v131q24 -11 57 -11q29 0 41.5 12.5t12.5 42.5v538z" />
    <glyph glyph-name="uni0259" unicode="&#x259;" horiz-adv-x="641" 
d="M433 309q-3 63 -40.5 91.5t-114.5 28.5q-29 0 -58 -4.5t-55 -13t-47.5 -19.5t-36.5 -23v136q10 9 30 17.5t48.5 15.5t64 11.5t77.5 4.5q80 0 135.5 -18t90.5 -54t51 -91t16 -129q0 -141 -73.5 -208.5t-210.5 -67.5q-75 0 -126 18t-82 52t-44.5 81.5t-13.5 106.5v65h389z
M313 106q116 0 120 112h-231q0 -53 24.5 -82.5t86.5 -29.5z" />
    <glyph glyph-name="afii57929" unicode="&#x2bc;" horiz-adv-x="240" 
d="M91 700h144l-86 -200h-104z" />
    <glyph glyph-name="circumflex" unicode="&#x2c6;" horiz-adv-x="485" 
d="M165 780h156l112 -160h-121l-68 87l-70 -87h-121z" />
    <glyph glyph-name="caron" unicode="&#x2c7;" horiz-adv-x="485" 
d="M53 790h121l69 -87l69 87h121l-112 -160h-156z" />
    <glyph glyph-name="breve" unicode="&#x2d8;" horiz-adv-x="485" 
d="M243 615q-143 0 -180 145l92 25q11 -38 34.5 -55t53.5 -17t53.5 17t34.5 55l92 -25q-37 -145 -180 -145z" />
    <glyph glyph-name="dotaccent" unicode="&#x2d9;" horiz-adv-x="485" 
d="M243 620q-46 0 -67 20t-21 60t21 60t67 20t67 -20t21 -60t-21 -60t-67 -20z" />
    <glyph glyph-name="ring" unicode="&#x2da;" horiz-adv-x="485" 
d="M127 700q0 52 32 84t84 32t84 -32t32 -84t-32 -84t-84 -32t-84 32t-32 84zM199 700q0 -20 12 -32t32 -12t32 12t12 32t-12 32t-32 12t-32 -12t-12 -32z" />
    <glyph glyph-name="ogonek" unicode="&#x2db;" horiz-adv-x="485" 
d="M383 -234q-17 -8 -39.5 -14t-54.5 -6q-38 0 -63.5 10t-40.5 25t-21.5 34t-6.5 37q0 27 10.5 51t28.5 44t41 36t47 28l66 -9q-40 -26 -62 -56.5t-22 -69.5q0 -26 16 -40.5t41 -14.5q31 0 60 16v-71z" />
    <glyph glyph-name="tilde" unicode="&#x2dc;" horiz-adv-x="485" 
d="M53 640q2 65 33 98.5t78 33.5q22 0 41.5 -7.5t44.5 -18.5q13 -6 22 -10t16 -6.5t12.5 -3.5t12.5 -1q33 0 39 47l81 -13q-3 -61 -33 -96t-78 -35q-12 0 -22 1t-19.5 4t-20.5 7.5t-25 11.5q-23 11 -35 17.5t-26 6.5t-25 -12.5t-15 -35.5z" />
    <glyph glyph-name="hungarumlaut" unicode="&#x2dd;" horiz-adv-x="485" 
d="M80 780h170l-100 -160h-120zM320 780h190l-160 -160h-130z" />
    <glyph glyph-name="acutecomb" unicode="&#x301;" horiz-adv-x="0" 
d="M-304 790h190l-170 -160h-120z" />
    <glyph glyph-name="uni0394" unicode="&#x394;" horiz-adv-x="696" 
d="M241 700h216l230 -700h-677zM477 143l-130 409h-2l-133 -409h265z" />
    <glyph glyph-name="uni0394" unicode="&#x2206;" horiz-adv-x="696" 
d="M241 700h216l230 -700h-677zM477 143l-130 409h-2l-133 -409h265z" />
    <glyph glyph-name="uni03A9" unicode="&#x3a9;" horiz-adv-x="797" 
d="M66 135h171v37q-36 8 -68 26.5t-57 49t-39.5 72.5t-14.5 96q0 69 22.5 124t66 93t106.5 58.5t145 20.5t145.5 -20.5t107 -58.5t66 -93t22.5 -124q0 -54 -14.5 -96t-39.5 -72.5t-57 -49t-68 -26.5v-37h171v-135h-295v229q42 7 67.5 26.5t39 43.5t18 49t4.5 43q0 31 -7 63
t-26 57.5t-51 41.5t-83 16q-50 0 -82 -16t-51 -41.5t-26 -57.5t-7 -63q0 -18 4.5 -43t18 -49t39.5 -43.5t68 -26.5v-229h-296v135z" />
    <glyph glyph-name="uni03A9" unicode="&#x2126;" horiz-adv-x="797" 
d="M66 135h171v37q-36 8 -68 26.5t-57 49t-39.5 72.5t-14.5 96q0 69 22.5 124t66 93t106.5 58.5t145 20.5t145.5 -20.5t107 -58.5t66 -93t22.5 -124q0 -54 -14.5 -96t-39.5 -72.5t-57 -49t-68 -26.5v-37h171v-135h-295v229q42 7 67.5 26.5t39 43.5t18 49t4.5 43q0 31 -7 63
t-26 57.5t-51 41.5t-83 16q-50 0 -82 -16t-51 -41.5t-26 -57.5t-7 -63q0 -18 4.5 -43t18 -49t39.5 -43.5t68 -26.5v-229h-296v135z" />
    <glyph glyph-name="pi" unicode="&#x3c0;" horiz-adv-x="750" 
d="M149 399q-29 0 -51 -11.5t-39 -22.5l-46 128q20 17 64 32t125 15h507v-138h-83v-208q0 -41 9 -55t31 -14q7 0 14.5 1t15.5 3l2 -133q-16 -4 -39.5 -6.5t-46.5 -2.5q-35 0 -62 8t-45.5 26t-28.5 47.5t-10 72.5v261h-158v-402h-159v399z" />
    <glyph glyph-name="afii10023" unicode="&#x401;" horiz-adv-x="636" 
d="M91 700h488v-142h-324v-138h285v-132h-285v-146h324v-142h-488v700zM221 762q-45 0 -65.5 19.5t-20.5 58.5t20.5 58.5t65.5 19.5t65.5 -19.5t20.5 -58.5t-20.5 -58.5t-65.5 -19.5zM449 762q-45 0 -65.5 19.5t-20.5 58.5t20.5 58.5t65.5 19.5t65.5 -19.5t20.5 -58.5
t-20.5 -58.5t-65.5 -19.5z" />
    <glyph glyph-name="afii10051" unicode="&#x402;" horiz-adv-x="832" 
d="M230 559h-202v141h567v-141h-202v-145q37 14 76 21.5t90 7.5q68 0 112.5 -17.5t70 -45.5t35.5 -64t10 -72v-51q0 -95 -51.5 -149.5t-161.5 -54.5q-21 0 -45.5 3t-40.5 7v122q8 -5 21.5 -8t30.5 -3q35 0 55 16t20 58v33q0 48 -26 67t-73 19q-41 0 -70.5 -7.5t-52.5 -18.5
v-277h-163v559z" />
    <glyph glyph-name="afii10052" unicode="&#x403;" horiz-adv-x="589" 
d="M91 700h468v-147h-304v-553h-164v700zM359 925h192l-178 -170h-122z" />
    <glyph glyph-name="afii10053" unicode="&#x404;" horiz-adv-x="681" 
d="M408.033 130q-45.9941 0 -79.4902 8t-55.9932 27t-35.4951 50.5q-12.999 31.5 -16.998 77.5h292.964v122h-292.964q4.99902 45 18.4971 75q13.499 30 35.9961 47.5t54.9932 25t75.4902 7.5q40.9951 0 73.9912 -5t58.9932 -13.5t46.4941 -18.5q20.498 -10 36.4961 -20v163
q-40.9951 15 -100.988 25.5q-59.9922 10.5 -134.983 10.5q-89.9893 0 -153.981 -22t-103.987 -66.5t-58.4922 -111q-18.498 -66.5 -18.498 -155.5q0 -98 21.4971 -168q21.498 -70 65.4922 -114.5t111.486 -65.5t160.48 -21q71.9912 0 124.984 12q52.9941 12 83.9902 26v160
q-31.9961 -20 -83.9902 -38q-51.9932 -18 -125.984 -18z" />
    <glyph glyph-name="afii10054" unicode="&#x405;" horiz-adv-x="640" 
d="M409 194q0 30 -25.5 46.5t-63.5 29t-83 26.5t-83 39t-63.5 66.5t-25.5 108.5q0 47 14.5 84.5t47 64t84.5 40.5t127 14q67 0 122.5 -9.5t91.5 -24.5v-161q-38 26 -91 43.5t-110 17.5q-36 0 -59 -5t-36.5 -14t-19 -21t-5.5 -26q0 -29 26.5 -45t66 -28.5t86 -26t86 -39
t66 -66.5t26.5 -108q0 -101 -68 -157t-220 -56q-68 0 -131 13t-101 35v167q13 -12 34 -26t49 -26t63 -20.5t77 -8.5q63 0 90.5 20t27.5 53z" />
    <glyph glyph-name="afii10055" unicode="&#x406;" horiz-adv-x="349" 
d="M93 700h163v-700h-163v700z" />
    <glyph glyph-name="afii10056" unicode="&#x407;" horiz-adv-x="349" 
d="M93 700h163v-700h-163v700zM62 762q-45 0 -65.5 19.5t-20.5 58.5t20.5 58.5t65.5 19.5t65.5 -19.5t20.5 -58.5t-20.5 -58.5t-65.5 -19.5zM290 762q-45 0 -65.5 19.5t-20.5 58.5t20.5 58.5t65.5 19.5t65.5 -19.5t20.5 -58.5t-20.5 -58.5t-65.5 -19.5z" />
    <glyph glyph-name="afii10057" unicode="&#x408;" horiz-adv-x="462" 
d="M207 700h164v-486q0 -60 -11.5 -102t-38 -68.5t-69 -39t-104.5 -12.5q-43 0 -71.5 4.5t-51.5 11.5v157q14 -11 41.5 -20.5t56.5 -9.5q45 0 64.5 20t19.5 80v465z" />
    <glyph glyph-name="afii10058" unicode="&#x409;" horiz-adv-x="1077" 
d="M25 160q12 -3 23 -3q25 0 42.5 13.5t30 54.5t20.5 116.5t14 200.5l7 158h500v-218q27 2 52 3.5t56 1.5q132 0 194 -56t62 -184q0 -61 -15 -108t-50 -79.5t-94 -49t-146 -16.5q-62 0 -118 2.5t-105 8.5v553h-190l-5 -69q-6 -105 -15 -182.5t-21.5 -133t-30 -91t-41 -56
t-53.5 -28.5t-68 -8q-27 0 -49 7v163zM662 135q18 -2 33.5 -3.5t32.5 -1.5q72 0 101 25.5t29 87.5q0 33 -6.5 53.5t-22 32.5t-41.5 16t-65 4q-17 0 -30.5 -0.5t-30.5 -1.5v-212z" />
    <glyph glyph-name="afii10059" unicode="&#x40a;" horiz-adv-x="1126" 
d="M91 700h164v-272h293v272h164v-218q26 2 51.5 3.5t56.5 1.5q132 0 194 -56t62 -184q0 -61 -15 -108t-50.5 -79.5t-94.5 -49t-146 -16.5q-62 0 -118 2.5t-104 8.5v281h-293v-286h-164v700zM712 135q18 -2 33.5 -3.5t32.5 -1.5q72 0 101 25.5t29 87.5q0 33 -6.5 53.5
t-22.5 32.5t-41.5 16t-64.5 4q-17 0 -30.5 -0.5t-30.5 -1.5v-212z" />
    <glyph glyph-name="afii10060" unicode="&#x40b;" horiz-adv-x="824" 
d="M230 559h-202v141h567v-141h-202v-144q25 11 64 19.5t93 8.5q61 0 104.5 -15t71.5 -42t40.5 -65t12.5 -84v-237h-164v194q0 32 -8 52.5t-22.5 32.5t-35.5 16.5t-47 4.5q-32 0 -59.5 -6t-49.5 -17v-277h-163v559z" />
    <glyph glyph-name="afii10061" unicode="&#x40c;" horiz-adv-x="721" 
d="M91 700h164v-278h56l185 278h191l-240 -331l263 -369h-195l-201 290h-59v-290h-164v700zM401 925h192l-178 -170h-122z" />
    <glyph glyph-name="afii10062" unicode="&#x40e;" horiz-adv-x="690" 
d="M153 167q11 -9 29 -16t38 -7q19 0 37 6.5t29 32.5l-273 517h193l170 -353l134 353h171l-226 -541q-20 -49 -40.5 -81t-44 -51.5t-53 -27.5t-67.5 -8q-26 0 -51.5 4.5t-45.5 12.5v159zM347 755q-39 0 -74 9.5t-60.5 29.5t-40.5 52.5t-15 78.5h116q0 -45 18 -65t56 -20
t57 20t19 65h114q0 -46 -15 -78.5t-40.5 -52.5t-60.5 -29.5t-74 -9.5z" />
    <glyph glyph-name="afii10145" unicode="&#x40f;" horiz-adv-x="771" 
d="M313 0h-222v700h164v-558h262v558h164v-700h-222v-130h-146v130z" />
    <glyph glyph-name="afii10017" unicode="&#x410;" horiz-adv-x="707" 
d="M478 147h-256l-48 -147h-163l246 700h194l245 -700h-168zM267 282h166l-83 249z" />
    <glyph glyph-name="afii10018" unicode="&#x411;" horiz-adv-x="687" 
d="M91 700h493v-142h-329v-124q36 2 62.5 3t53.5 1q67 0 116 -9.5t81 -33.5t47.5 -64.5t15.5 -101.5q0 -57 -15.5 -100.5t-51.5 -73.5t-95 -45.5t-146 -15.5q-55 0 -109 1.5t-123 5.5v699zM251 142q23 -3 41 -3.5t42 -0.5q38 0 63 5.5t39.5 17t20.5 29.5t6 44
q0 25 -5.5 41.5t-18.5 26.5t-36 14t-57 4q-25 0 -46.5 -1t-48.5 -3v-174z" />
    <glyph glyph-name="afii10019" unicode="&#x412;" horiz-adv-x="693" 
d="M91 699q77 3 139.5 4.5t116.5 1.5q81 0 133.5 -10t83.5 -32t43.5 -56.5t12.5 -83.5q0 -128 -128 -157q79 -5 116 -45.5t37 -114.5q0 -56 -14.5 -96.5t-51 -66.5t-98.5 -38t-156 -12q-43 0 -101 2t-133 6v698zM255 132q23 -2 45 -2.5t46 -0.5q40 0 65.5 4.5t40 15t20 26.5
t5.5 40t-6 40t-20 25.5t-37.5 13.5t-58.5 4h-100v-166zM363 411q55 0 75.5 20t20.5 60q0 23 -4.5 38t-16.5 24t-32.5 13t-53.5 4q-24 0 -46.5 -0.5t-50.5 -2.5v-156h108z" />
    <glyph glyph-name="afii10020" unicode="&#x413;" horiz-adv-x="589" 
d="M91 700h468v-147h-304v-553h-164v700z" />
    <glyph glyph-name="afii10021" unicode="&#x414;" horiz-adv-x="772" 
d="M17 142h71q16 33 29.5 82t23 109t15 126.5t7.5 134.5l2 106h487v-558h88v-272h-146v130h-431v-130h-146v272zM488 558h-176l-1 -43q-2 -51 -6.5 -102.5t-12.5 -100t-19 -92t-24 -78.5h239v416z" />
    <glyph glyph-name="afii10022" unicode="&#x415;" horiz-adv-x="636" 
d="M91 700h488v-142h-324v-138h285v-132h-285v-146h324v-142h-488v700z" />
    <glyph glyph-name="afii10024" unicode="&#x416;" horiz-adv-x="990" 
d="M369 418h45v282h164v-282h43l149 282h179l-187 -332l210 -368h-189l-159 286h-46v-286h-164v286h-47l-160 -286h-189l210 365l-188 335h182z" />
    <glyph glyph-name="afii10025" unicode="&#x417;" horiz-adv-x="620" 
d="M176 413h88q35 0 58 5t36.5 15.5t19 25.5t5.5 35q0 41 -24 58.5t-91 17.5q-57 0 -103 -14t-91 -39v163q41 14 95.5 23t126.5 9q73 0 122 -12.5t77.5 -35.5t40.5 -57t12 -77q0 -131 -128 -165q72 -9 112 -51t40 -116q0 -51 -14 -90t-47 -65.5t-87.5 -40.5t-135.5 -14
q-63 0 -121 9t-105 27v170q34 -27 89.5 -45.5t124.5 -18.5q37 0 61 6t37.5 17t18.5 27t5 37q0 20 -5.5 34.5t-19 24t-37.5 14t-60 4.5h-100v119z" />
    <glyph glyph-name="afii10026" unicode="&#x418;" horiz-adv-x="800" 
d="M91 700h164v-355q0 -32 -1.5 -65t-3.5 -68q15 31 30.5 61t33.5 60l224 367h171v-700h-164v356q0 31 1 65.5t4 69.5q-16 -31 -31 -62t-31 -57l-226 -372h-171v700z" />
    <glyph glyph-name="afii10027" unicode="&#x419;" horiz-adv-x="800" 
d="M91 700h164v-355q0 -32 -1.5 -65t-3.5 -68q15 31 30.5 61t33.5 60l224 367h171v-700h-164v356q0 31 1 65.5t4 69.5q-16 -31 -31 -62t-31 -57l-226 -372h-171v700zM400 755q-39 0 -74 9.5t-60.5 29.5t-40.5 52.5t-15 78.5h116q0 -45 18 -65t56 -20t57 20t19 65h114
q0 -46 -15 -78.5t-40.5 -52.5t-60.5 -29.5t-74 -9.5z" />
    <glyph glyph-name="afii10028" unicode="&#x41a;" horiz-adv-x="721" 
d="M91 700h164v-278h56l185 278h191l-240 -331l263 -369h-195l-201 290h-59v-290h-164v700z" />
    <glyph glyph-name="afii10029" unicode="&#x41b;" horiz-adv-x="753" 
d="M25 160q12 -3 23 -3q25 0 42.5 13.5t30 54.5t20.5 116.5t14 200.5l7 158h500v-700h-164v558h-190l-5 -69q-6 -105 -15 -182.5t-21.5 -133t-30 -91t-41 -56t-53.5 -28.5t-68 -8q-27 0 -49 7v163z" />
    <glyph glyph-name="afii10030" unicode="&#x41c;" horiz-adv-x="945" 
d="M91 700h233l154 -372l153 372h223v-700h-160v394q0 31 1.5 65t3.5 67q-14 -35 -27.5 -69t-24.5 -61l-106 -256h-135l-107 254q-11 28 -25 63t-29 70q2 -34 3.5 -67.5t1.5 -64.5v-395h-159v700z" />
    <glyph glyph-name="afii10031" unicode="&#x41d;" horiz-adv-x="803" 
d="M91 700h164v-272h293v272h164v-700h-164v286h-293v-286h-164v700z" />
    <glyph glyph-name="afii10032" unicode="&#x41e;" horiz-adv-x="793" 
d="M50 350q0 190 85.5 277t262.5 87q94 0 159.5 -21.5t106.5 -66t59.5 -113t18.5 -163.5q0 -99 -22 -168t-65.5 -112.5t-108 -63.5t-148.5 -20q-170 0 -259 86.5t-89 277.5zM224 349q0 -65 12.5 -108t35.5 -68t55.5 -35t73.5 -10t72.5 10.5t52.5 36t32 68t11 106.5t-11 107
t-33 69t-55 36.5t-76 10.5q-86 0 -128 -50.5t-42 -172.5z" />
    <glyph glyph-name="afii10033" unicode="&#x41f;" horiz-adv-x="778" 
d="M91 700h596v-700h-163v554h-269v-554h-164v700z" />
    <glyph glyph-name="afii10034" unicode="&#x420;" horiz-adv-x="677" 
d="M91 698q33 1 59.5 2.5t53.5 2.5t56.5 1.5t68.5 0.5q83 0 140.5 -13.5t93.5 -42.5t52.5 -75.5t16.5 -113.5q0 -136 -73 -200t-232 -64q-20 0 -36 0.5t-36 2.5v-199h-164v698zM255 334q20 -2 35.5 -2.5t36.5 -0.5q76 0 106 30t30 91q0 30 -6 52t-22 37t-42.5 22t-66.5 7
q-20 0 -35.5 -0.5t-35.5 -2.5v-233z" />
    <glyph glyph-name="afii10035" unicode="&#x421;" horiz-adv-x="656" 
d="M595 515q-31 18 -74.5 34t-111.5 16q-47 0 -82 -11t-58 -36t-34 -65.5t-11 -99.5q0 -62 12 -104t36 -67.5t60 -36t85 -10.5q66 0 113 17t73 36v-163q-27 -13 -77.5 -25.5t-121.5 -12.5q-94 0 -161 21.5t-110 65.5t-63 111t-20 159q0 94 20.5 163.5t63.5 115.5t110 68
t161 22q71 0 118 -11.5t72 -19.5v-167z" />
    <glyph glyph-name="afii10036" unicode="&#x422;" horiz-adv-x="623" 
d="M230 559h-202v141h567v-141h-202v-559h-163v559z" />
    <glyph glyph-name="afii10037" unicode="&#x423;" horiz-adv-x="690" 
d="M153 167q11 -9 29 -16t38 -7q19 0 37 6.5t29 32.5l-273 517h193l170 -353l134 353h171l-226 -541q-20 -49 -40.5 -81t-44 -51.5t-53 -27.5t-67.5 -8q-26 0 -51.5 4.5t-45.5 12.5v159z" />
    <glyph glyph-name="afii10038" unicode="&#x424;" horiz-adv-x="937" 
d="M386 58h-17q-87 0 -148.5 16.5t-100.5 51.5t-57 91t-18 136q0 81 18.5 137t58.5 91t101 51t147 16h16v72h164v-72h17q88 0 149.5 -15t100.5 -50t56.5 -91.5t17.5 -138.5q0 -80 -20 -136t-60 -91.5t-101.5 -51.5t-143.5 -16h-16v-78h-164v78zM391 519h-17q-44 0 -74 -8
t-48 -27t-26 -50.5t-8 -78.5q0 -50 9 -82.5t28 -51t48.5 -26t70.5 -7.5h17v331zM562 188q44 0 74 9t48 28.5t26 51.5t8 77q0 50 -8 82t-26.5 50.5t-48.5 25.5t-74 7h-16v-331h17z" />
    <glyph glyph-name="afii10039" unicode="&#x425;" horiz-adv-x="709" 
d="M227 359l-189 341h190l127 -234l132 234h187l-201 -338l212 -362h-193l-144 249l-137 -249h-188z" />
    <glyph glyph-name="afii10040" unicode="&#x426;" horiz-adv-x="800" 
d="M91 700h164v-558h262v558h164v-558h88v-272h-146v130h-532v700z" />
    <glyph glyph-name="afii10041" unicode="&#x427;" horiz-adv-x="716" 
d="M461 257q-23 -11 -63 -20t-99 -9q-63 0 -107 12.5t-71.5 38t-40.5 64.5t-13 92v265h164v-225q0 -61 28 -82.5t80 -21.5q79 0 122 22v307h164v-700h-164v257z" />
    <glyph glyph-name="afii10042" unicode="&#x428;" horiz-adv-x="1029" 
d="M91 700h164v-558h177v558h165v-558h177v558h164v-700h-847v700z" />
    <glyph glyph-name="afii10043" unicode="&#x429;" horiz-adv-x="1058" 
d="M91 700h164v-558h177v558h165v-558h177v558h164v-558h88v-272h-145v130h-790v700z" />
    <glyph glyph-name="afii10044" unicode="&#x42a;" horiz-adv-x="756" 
d="M177 558h-149v142h313v-218q26 2 52 3.5t56 1.5q132 0 194.5 -56t62.5 -184q0 -61 -15 -108t-50.5 -79.5t-94.5 -49t-146 -16.5q-62 0 -118.5 2.5t-104.5 8.5v553zM341 135q18 -2 34 -3.5t33 -1.5q71 0 100 25.5t29 87.5q0 33 -6.5 53.5t-22 32.5t-41.5 16t-65 4
q-17 0 -30.5 -0.5t-30.5 -1.5v-212z" />
    <glyph glyph-name="afii10045" unicode="&#x42b;" horiz-adv-x="936" 
d="M91 700h164v-218q26 2 51.5 3.5t56.5 1.5q127 0 186.5 -56t59.5 -184q0 -60 -14.5 -107.5t-49 -79.5t-91 -49t-141.5 -17q-64 0 -119 2.5t-103 8.5v695zM255 135q18 -2 33.5 -3.5t32.5 -1.5q67 0 93.5 26t26.5 87q0 32 -6 52.5t-20.5 32.5t-38.5 16.5t-60 4.5
q-17 0 -30.5 -0.5t-30.5 -1.5v-212zM681 700h164v-700h-164v700z" />
    <glyph glyph-name="afii10046" unicode="&#x42c;" horiz-adv-x="669" 
d="M91 700h164v-218q26 2 51.5 3.5t56.5 1.5q132 0 194 -56t62 -184q0 -61 -15 -108t-50.5 -79.5t-94.5 -49t-146 -16.5q-62 0 -118 2.5t-104 8.5v695zM255 135q18 -2 33.5 -3.5t32.5 -1.5q72 0 101 25.5t29 87.5q0 33 -6.5 53.5t-22 32.5t-41.5 16t-65 4q-17 0 -30.5 -0.5
t-30.5 -1.5v-212z" />
    <glyph glyph-name="afii10047" unicode="&#x42d;" horiz-adv-x="681" 
d="M273 130q46 0 79.5 8t56 27t35.5 50.5t17 77.5h-293v122h293q-5 45 -18.5 75t-36 47.5t-55 25t-75.5 7.5q-41 0 -74 -5t-59 -13.5t-46.5 -18.5t-36.5 -20v163q41 15 101 25.5t135 10.5q90 0 154 -22t104 -66.5t58.5 -111t18.5 -155.5q0 -98 -21.5 -168t-65.5 -114.5
t-111.5 -65.5t-160.5 -21q-72 0 -125 12t-84 26v160q32 -20 84 -38t126 -18z" />
    <glyph glyph-name="afii10048" unicode="&#x42e;" horiz-adv-x="1076" 
d="M690 713q84 0 147 -19t105 -62t63 -112.5t21 -169.5q0 -103 -24 -172.5t-68 -112t-106 -60.5t-139 -18q-78 0 -136.5 17.5t-99 53.5t-63 92t-28.5 133h-107v-283h-164v700h164v-272h109q16 143 96 214t230 71zM525 349q0 -61 9.5 -103t29.5 -68t52 -37.5t76 -11.5
t74.5 11.5t49.5 38t27.5 68.5t8.5 102q0 63 -9 106t-29 68.5t-51 36.5t-74 11q-42 0 -73 -11t-51 -36.5t-30 -68.5t-10 -106z" />
    <glyph glyph-name="afii10049" unicode="&#x42f;" horiz-adv-x="710" 
d="M198 249q-63 26 -92.5 80.5t-29.5 132.5q0 61 17 107t54.5 76.5t96 45.5t141.5 15q32 0 60 -0.5t56 -1.5t57 -2.5t62 -2.5v-699h-164v222h-103l-133 -222h-180zM459 561q-23 2 -40 2h-35q-44 0 -71 -7t-42 -20.5t-20.5 -33t-5.5 -45.5q0 -51 25.5 -77t93.5 -26h95v207z
" />
    <glyph glyph-name="afii10065" unicode="&#x430;" horiz-adv-x="619" 
d="M400 78q-8 -15 -23.5 -31.5t-38 -30t-52.5 -22t-68 -8.5q-48 0 -82 13t-56 35.5t-32 53.5t-10 67q0 89 57.5 126t183.5 37h110v26q0 43 -25 61.5t-90 18.5q-27 0 -54 -5t-51.5 -14t-45.5 -20t-36 -23v153q35 17 92 28t123 11q69 0 116.5 -10.5t77 -34.5t42 -62.5
t12.5 -95.5v-351h-144zM200 172q0 -27 16.5 -45.5t61.5 -18.5q59 0 85 27.5t26 68.5v29h-88q-58 0 -79.5 -13.5t-21.5 -47.5z" />
    <glyph glyph-name="afii10066" unicode="&#x431;" horiz-adv-x="692" 
d="M591 638q-21 -11 -64 -18.5t-115 -13.5q-54 -5 -97.5 -13t-74 -26.5t-48 -50.5t-18.5 -84l1 -14q39 48 94 73.5t135 25.5q66 0 111.5 -15t74.5 -46.5t42 -80t13 -115.5q0 -74 -20 -126t-57.5 -85t-91.5 -48t-122 -15q-71 0 -127 15.5t-95 55t-59.5 106.5t-20.5 171
q0 122 23 200t65 124t102.5 66.5t135.5 28.5q76 7 128 14t85 20v-149zM355 114q66 0 95.5 35t29.5 107q0 73 -30 102.5t-96 29.5q-69 0 -101 -31.5t-32 -93.5q0 -75 31.5 -112t102.5 -37z" />
    <glyph glyph-name="afii10067" unicode="&#x432;" horiz-adv-x="631" 
d="M76 541q27 1 58 2t62.5 2t63 1.5t58.5 0.5q72 0 119 -9t74.5 -26.5t38 -43.5t10.5 -60q0 -28 -7.5 -48.5t-20.5 -35.5t-30 -24t-35 -14q55 -5 86.5 -32t31.5 -91q0 -44 -14 -76t-46.5 -53t-85 -31t-130.5 -10q-56 0 -117.5 2.5t-115.5 4.5v541zM235 116q25 -2 42.5 -3
t39.5 -1q59 0 81 14t22 49q0 34 -18.5 45t-65.5 11h-101v-115zM319 321q44 0 64 11.5t20 44.5q0 15 -4 25t-14 16t-28 8.5t-45 2.5q-50 0 -77 -3v-105h84z" />
    <glyph glyph-name="afii10068" unicode="&#x433;" horiz-adv-x="510" 
d="M76 540h400v-139h-241v-401h-159v540z" />
    <glyph glyph-name="afii10069" unicode="&#x434;" horiz-adv-x="691" 
d="M23 134h64q28 56 39 146t12 204l1 56h441v-406h80v-264h-147v130h-342v-130h-148v264zM420 406h-138l-1 -34q-2 -66 -12 -129.5t-27 -108.5h178v272z" />
    <glyph glyph-name="afii10070" unicode="&#x435;" horiz-adv-x="641" 
d="M208 231q2 -63 39.5 -91.5t115.5 -28.5q29 0 58 4.5t55 13t47.5 19.5t36.5 23v-136q-20 -17 -78 -33t-142 -16q-80 0 -135.5 18t-90.5 54t-51 91t-16 130q0 140 73.5 207.5t210.5 67.5q75 0 125.5 -18t82 -52t45 -81.5t13.5 -106.5v-65h-389zM328 435q-60 0 -89 -28
t-32 -85h231q1 54 -23.5 83.5t-86.5 29.5z" />
    <glyph glyph-name="afii10072" unicode="&#x436;" horiz-adv-x="888" 
d="M20 0l166 276l-150 264h175l106 -205h47v205h160v-205h47l108 205h174l-150 -262l165 -278h-180l-116 213h-48v-213h-160v213h-47l-118 -213h-179z" />
    <glyph glyph-name="afii10073" unicode="&#x437;" horiz-adv-x="575" 
d="M57 171q35 -24 88.5 -41t110.5 -17q56 0 82 14.5t26 46.5q0 27 -21 38.5t-75 11.5h-99v99h94q82 0 82 54q0 28 -22 39t-83 11q-48 0 -91.5 -13t-85.5 -39v143q47 19 99.5 27.5t117.5 8.5q71 0 115.5 -10.5t69 -28.5t33 -43.5t8.5 -55.5q0 -55 -25 -88t-71 -44
q61 -8 89.5 -39.5t28.5 -82.5q0 -41 -13.5 -74t-44.5 -55.5t-81.5 -34.5t-123.5 -12q-57 0 -113.5 10t-94.5 28v147z" />
    <glyph glyph-name="afii10074" unicode="&#x438;" horiz-adv-x="685" 
d="M76 540h159v-237q0 -32 -1.5 -57.5t-3.5 -47.5h3q14 24 26.5 43.5t28.5 42.5l170 256h151v-540h-159v224q0 35 1 65.5t3 54.5h-2q-12 -21 -24.5 -42.5t-28.5 -44.5l-172 -257h-151v540z" />
    <glyph glyph-name="afii10075" unicode="&#x439;" horiz-adv-x="685" 
d="M76 540h159v-237q0 -32 -1.5 -57.5t-3.5 -47.5h3q14 24 26.5 43.5t28.5 42.5l170 256h151v-540h-159v224q0 35 1 65.5t3 54.5h-2q-12 -21 -24.5 -42.5t-28.5 -44.5l-172 -257h-151v540zM342 615q-36 0 -68.5 9.5t-57 29.5t-39.5 52.5t-15 78.5h114q0 -45 18 -65.5
t48 -20.5t49 20.5t19 65.5h112q0 -46 -15 -78.5t-39.5 -52.5t-57 -29.5t-68.5 -9.5z" />
    <glyph glyph-name="afii10076" unicode="&#x43a;" horiz-adv-x="645" 
d="M304 208h-69v-208h-159v540h159v-204h64l123 204h184l-170 -256l195 -284h-194z" />
    <glyph glyph-name="afii10077" unicode="&#x43b;" horiz-adv-x="661" 
d="M27 155q13 -3 23 -3q19 0 33.5 9t25 40t16.5 91.5t8 164.5l2 83h450v-540h-160v400h-144l-1 -28q-4 -110 -17 -184t-36.5 -118.5t-58 -63.5t-82.5 -19q-35 0 -59 8v160z" />
    <glyph glyph-name="afii10078" unicode="&#x43c;" horiz-adv-x="803" 
d="M76 540h206l121 -268l119 268h205v-540h-152v294q0 29 2 52.5t4 52.5q-12 -26 -21.5 -52t-19.5 -46l-89 -197h-99l-87 197q-10 20 -20.5 44.5t-22.5 50.5q2 -27 3.5 -51t1.5 -52v-293h-151v540z" />
    <glyph glyph-name="afii10079" unicode="&#x43d;" horiz-adv-x="679" 
d="M76 540h159v-201h209v201h160v-540h-160v204h-209v-204h-159v540z" />
    <glyph glyph-name="afii10080" unicode="&#x43e;" horiz-adv-x="675" 
d="M47 271q0 144 74 213.5t219 69.5q150 0 219 -68.5t69 -215.5t-71.5 -215.5t-219.5 -68.5q-152 0 -221 70t-69 215zM211 267q0 -77 29 -115.5t99 -38.5q67 0 96 36t29 117v5q0 82 -27.5 119t-99.5 37q-71 0 -98.5 -37.5t-27.5 -118.5v-4z" />
    <glyph glyph-name="afii10081" unicode="&#x43f;" horiz-adv-x="669" 
d="M76 540h516v-540h-159v401h-198v-401h-159v540z" />
    <glyph glyph-name="afii10082" unicode="&#x440;" horiz-adv-x="696" 
d="M75 540h151l5 -79q23 42 68 67.5t121 25.5q61 0 104 -15.5t71 -48.5t41 -85.5t13 -125.5q0 -149 -56.5 -221t-184.5 -72q-38 0 -66 7.5t-48.5 19.5t-35 26.5t-23.5 28.5v-248h-160v720zM235 251q0 -63 29 -100t96 -37q69 0 95.5 39t26.5 125q0 80 -29 114t-94 34
q-66 0 -95 -34.5t-29 -97.5v-43z" />
    <glyph glyph-name="afii10083" unicode="&#x441;" horiz-adv-x="580" 
d="M519 373q-28 20 -65.5 33.5t-92.5 13.5q-75 0 -112 -32t-37 -112q0 -81 37.5 -118t127.5 -37q45 0 86.5 12.5t65.5 31.5v-141q-24 -13 -68.5 -25.5t-112.5 -12.5q-80 0 -136.5 16.5t-93.5 51.5t-54 90t-17 133q0 140 71 208.5t225 68.5q70 0 110 -10t66 -22v-149z" />
    <glyph glyph-name="afii10084" unicode="&#x442;" horiz-adv-x="562" 
d="M201 401h-175v139h510v-139h-175v-401h-160v401z" />
    <glyph glyph-name="afii10085" unicode="&#x443;" horiz-adv-x="602" 
d="M191 -60q22 0 35.5 12t23.5 46l-233 542h180l127 -349l100 349h164l-183 -526q-22 -63 -42.5 -103t-44 -63.5t-50 -32.5t-60.5 -9q-23 0 -47.5 3.5t-38.5 9.5l1 139q13 -7 31 -12.5t37 -5.5z" />
    <glyph glyph-name="afii10086" unicode="&#x444;" horiz-adv-x="851" 
d="M346 -180v171q-16 -3 -30 -4t-31 -1q-56 0 -100 14.5t-75 47.5t-47 87.5t-16 135.5q0 77 16.5 131t47.5 87.5t76.5 49t104.5 15.5q17 0 29.5 -1.5t24.5 -3.5v211h159v-211q16 3 30.5 4.5t31.5 1.5q57 0 101.5 -13.5t74.5 -46t45.5 -86.5t15.5 -135q0 -79 -17.5 -134
t-49 -89t-77 -49.5t-100.5 -15.5q-32 0 -55 4v-170h-159zM316 113q11 0 17.5 0.5t12.5 1.5v310q-7 1 -13 1.5t-15 0.5q-28 0 -48 -7.5t-32.5 -25.5t-18.5 -47.5t-6 -72.5q0 -44 5.5 -75t17.5 -50t31.5 -27.5t48.5 -8.5zM505 115q7 -1 12.5 -1.5t13.5 -0.5q57 0 82 35t25 123
q0 47 -5.5 77t-18.5 47.5t-33 24.5t-50 7q-8 0 -14 -0.5t-12 -1.5v-310z" />
    <glyph glyph-name="afii10087" unicode="&#x445;" horiz-adv-x="609" 
d="M193 279l-165 261h180l100 -162l102 162h174l-169 -259l179 -281h-181l-112 176l-110 -176h-176z" />
    <glyph glyph-name="afii10088" unicode="&#x446;" horiz-adv-x="696" 
d="M76 540h159v-406h189v406h160v-406h81v-264h-147v130h-442v540z" />
    <glyph glyph-name="afii10089" unicode="&#x447;" horiz-adv-x="625" 
d="M52 540h160v-156q0 -45 21.5 -65.5t70.5 -20.5q27 0 47.5 4t37.5 11v227h160v-540h-160v187q-24 -11 -60.5 -16.5t-67.5 -5.5q-47 0 -85.5 9t-66 29.5t-42.5 53.5t-15 81v202z" />
    <glyph glyph-name="afii10090" unicode="&#x448;" horiz-adv-x="913" 
d="M76 540h159v-406h141v406h160v-406h141v406h159v-540h-760v540z" />
    <glyph glyph-name="afii10091" unicode="&#x449;" horiz-adv-x="949" 
d="M76 540h159v-406h141v406h160v-406h141v406h159v-406h83v-264h-148v130h-695v540z" />
    <glyph glyph-name="afii10092" unicode="&#x44a;" horiz-adv-x="695" 
d="M164 401h-138v139h298v-155q25 2 45 3t47 1q69 0 116 -11.5t75 -35t40 -60t12 -86.5q0 -51 -14.5 -89.5t-48 -64t-89.5 -38t-138 -12.5q-59 0 -108.5 2.5t-96.5 5.5v401zM322 117q13 -2 26.5 -2.5t35.5 -0.5q32 0 53 5t33.5 15t17.5 25.5t5 36.5q0 20 -5 34.5t-18 24
t-35 14t-56 4.5q-13 0 -26.5 -1t-30.5 -2v-153z" />
    <glyph glyph-name="afii10093" unicode="&#x44b;" horiz-adv-x="844" 
d="M235 386q24 2 38.5 2.5t38.5 0.5q68 0 114 -12t73.5 -36t39 -60t11.5 -85q0 -48 -14.5 -86t-47.5 -64t-87.5 -40t-134.5 -14q-54 0 -97.5 2.5t-92.5 5.5v540h159v-154zM233 116q13 -1 24 -1.5t28 -0.5q60 0 79.5 21.5t19.5 60.5q0 18 -4 32.5t-14.5 24t-29.5 15t-49 5.5
q-13 0 -25 -1t-29 -2v-154zM608 540h159v-540h-159v540z" />
    <glyph glyph-name="afii10094" unicode="&#x44c;" horiz-adv-x="607" 
d="M76 540h159v-154q25 2 45 2.5t47 0.5q70 0 116.5 -11.5t75 -35t40.5 -60t12 -86.5q0 -51 -14.5 -89.5t-48 -64t-89.5 -38t-139 -12.5q-59 0 -108 2.5t-96 5.5v540zM233 117q14 -2 27.5 -2.5t34.5 -0.5q64 0 87 19.5t23 62.5q0 20 -5 34.5t-18 24t-35.5 14t-56.5 4.5
q-12 0 -25.5 -1t-31.5 -2v-153z" />
    <glyph glyph-name="afii10095" unicode="&#x44d;" horiz-adv-x="605" 
d="M250 113q36 0 62.5 6t44.5 19t28 34t14 52h-233v100h232q-8 57 -41.5 80t-104.5 23q-65 0 -109 -16t-81 -35v145q26 11 76 22t115 11q85 0 143.5 -16t94.5 -49t51.5 -84.5t15.5 -122.5q0 -74 -15.5 -129t-51 -92.5t-94 -56t-144.5 -18.5q-74 0 -122 11.5t-73 21.5v146
q13 -8 33.5 -17t46 -16.5t54 -13t58.5 -5.5z" />
    <glyph glyph-name="afii10096" unicode="&#x44e;" horiz-adv-x="922" 
d="M588 554q75 0 129 -15.5t89 -49.5t52 -88t17 -130q0 -150 -72 -217.5t-214 -67.5q-128 0 -195 53t-80 168h-79v-207h-159v540h159v-200h80q15 112 81.5 163t191.5 51zM461 271q0 -87 30.5 -122.5t94.5 -35.5q31 0 54 7.5t38.5 26t23 48.5t7.5 75q0 48 -7.5 78.5t-22.5 48
t-38.5 24t-55.5 6.5q-34 0 -57.5 -7.5t-38.5 -25.5t-21.5 -48t-6.5 -75z" />
    <glyph glyph-name="afii10097" unicode="&#x44f;" horiz-adv-x="641" 
d="M163 185q-51 19 -75.5 58.5t-24.5 108.5q0 51 14 87.5t47.5 60.5t89.5 35.5t140 11.5q51 0 105 -1.5t106 -4.5v-541h-160v161h-93l-101 -161h-174zM407 418q-29 3 -70 3q-32 0 -53 -4t-33 -12.5t-17 -22.5t-5 -33q0 -42 20.5 -58.5t67.5 -16.5h90v144z" />
    <glyph glyph-name="afii10071" unicode="&#x451;" horiz-adv-x="641" 
d="M208 231q2 -63 39.5 -91.5t115.5 -28.5q29 0 58 4.5t55 13t47.5 19.5t36.5 23v-136q-20 -17 -78 -33t-142 -16q-80 0 -135.5 18t-90.5 54t-51 91t-16 130q0 140 73.5 207.5t210.5 67.5q75 0 125.5 -18t82 -52t45 -81.5t13.5 -106.5v-65h-389zM328 435q-60 0 -89 -28
t-32 -85h231q1 54 -23.5 83.5t-86.5 29.5zM221 624q-45 0 -64.5 19t-19.5 57t19.5 57t64.5 19t64.5 -19t19.5 -57t-19.5 -57t-64.5 -19zM443 624q-45 0 -64.5 19t-19.5 57t19.5 57t64.5 19t64.5 -19t19.5 -57t-19.5 -57t-64.5 -19z" />
    <glyph glyph-name="afii10099" unicode="&#x452;" horiz-adv-x="646" 
d="M235 605v-167q21 44 66.5 67t115.5 23q102 0 146 -48t44 -153v-65q0 -78 -14 -147.5t-38.5 -126.5t-57.5 -100t-70 -69l-107 77q62 46 95 126.5t33 214.5v54q0 57 -23 80.5t-80 23.5q-60 0 -85 -28.5t-25 -89.5v-277h-159v605h-73v91h73v64h159v-64h237v-91h-237z" />
    <glyph glyph-name="afii10100" unicode="&#x453;" horiz-adv-x="510" 
d="M76 540h400v-139h-241v-401h-159v540zM305 790h190l-170 -160h-120z" />
    <glyph glyph-name="afii10101" unicode="&#x454;" horiz-adv-x="605" 
d="M355.03 113q-35.9951 0 -62.4922 6t-44.4941 19q-17.998 13 -27.9971 34t-13.998 52h232.972v100h-231.972q7.99902 57 41.4951 80q33.4951 23 104.487 23q64.9912 0 108.986 -16q43.9941 -16 80.9902 -35v145q-25.9971 11 -75.9912 22q-49.9932 11 -114.985 11
q-84.9902 0 -143.482 -16q-58.4932 -16 -94.4893 -49q-35.9951 -33 -51.4932 -84.5t-15.498 -122.5q0 -74 15.498 -129t50.9932 -92.5q35.4961 -37.5 93.9893 -56q58.4922 -18.5 144.482 -18.5q73.9902 0 121.984 11.5t72.9912 21.5v146q-12.998 -8 -33.4961 -17
q-20.4971 -9 -45.9941 -16.5t-53.9932 -13t-58.4932 -5.5z" />
    <glyph glyph-name="afii10102" unicode="&#x455;" horiz-adv-x="555" 
d="M473 386q-33 20 -73 34.5t-96 14.5q-48 0 -64.5 -10.5t-16.5 -33.5q0 -21 21 -31t52.5 -17.5t68.5 -16t68.5 -26.5t52.5 -49.5t21 -83.5q0 -44 -12 -77.5t-40.5 -56.5t-76 -35t-117.5 -12q-45 0 -96.5 7.5t-99.5 26.5v149q32 -26 82.5 -44.5t110.5 -18.5q50 0 68 13.5
t18 39.5q0 20 -21 30.5t-52.5 19t-68.5 17.5t-68.5 27.5t-52.5 49.5t-21 82q0 43 12 75t40 53t73.5 31t113.5 10q44 0 90 -7t84 -18v-143z" />
    <glyph glyph-name="afii10103" unicode="&#x456;" horiz-adv-x="321" 
d="M80 540h160v-540h-160v540zM161 620q-46 0 -67 20t-21 60t21 60t67 20t67 -20t21 -60t-21 -60t-67 -20z" />
    <glyph glyph-name="afii10104" unicode="&#x457;" horiz-adv-x="321" 
d="M80 540h160v-540h-160v540zM51 624q-45 0 -64.5 19t-19.5 57t19.5 57t64.5 19t64.5 -19t19.5 -57t-19.5 -57t-64.5 -19zM273 624q-45 0 -64.5 19t-19.5 57t19.5 57t64.5 19t64.5 -19t19.5 -57t-19.5 -57t-64.5 -19z" />
    <glyph glyph-name="afii10105" unicode="&#x458;" horiz-adv-x="327" 
d="M86 540h160v-546q0 -51 -11 -86t-32.5 -56t-53.5 -30t-75 -9q-40 0 -64 4.5t-35 9.5v131q24 -11 57 -11q29 0 41.5 12.5t12.5 42.5v538zM167 620q-46 0 -67 20t-21 60t21 60t67 20t67 -20t21 -60t-21 -60t-67 -20z" />
    <glyph glyph-name="afii10106" unicode="&#x459;" horiz-adv-x="956" 
d="M27 155q13 -3 23 -3q19 0 33.5 9t25 40t16.5 91.5t8 164.5l2 83h450v-154q25 2 45 2.5t47 0.5q69 0 116 -11.5t75 -35t40 -60t12 -86.5q0 -51 -14.5 -89.5t-48 -64t-89.5 -38t-138 -12.5q-59 0 -108.5 2.5t-96.5 5.5v400h-144l-1 -25q-5 -110 -18 -184.5t-36 -119.5
t-57.5 -64.5t-82.5 -19.5q-35 0 -59 8v160zM583 117q14 -2 27.5 -2.5t34.5 -0.5q32 0 53 5t33.5 15t17.5 25.5t5 36.5q0 20 -5 34.5t-17.5 24t-35 14t-56.5 4.5q-12 0 -26 -1t-31 -2v-153z" />
    <glyph glyph-name="afii10107" unicode="&#x45a;" horiz-adv-x="975" 
d="M76 540h159v-200h209v200h160v-154q25 2 45 2.5t47 0.5q69 0 116 -11.5t75 -35t40 -60t12 -86.5q0 -51 -14.5 -89.5t-48 -64t-89.5 -38t-138 -12.5q-59 0 -108.5 2.5t-96.5 5.5v205h-209v-205h-159v540zM602 117q14 -2 27.5 -2.5t34.5 -0.5q32 0 53 5t33.5 15t17.5 25.5
t5 36.5q0 20 -5 34.5t-18 24t-35 14t-56 4.5q-12 0 -26 -1t-31 -2v-153z" />
    <glyph glyph-name="afii10108" unicode="&#x45b;" horiz-adv-x="676" 
d="M76 605h-73v91h73v64h159v-64h237v-91h-237v-167q21 44 66.5 67t115.5 23q102 0 146 -48t44 -153v-327h-159v291q0 57 -23 80.5t-80 23.5q-60 0 -85 -28.5t-25 -89.5v-277h-159v605z" />
    <glyph glyph-name="afii10109" unicode="&#x45c;" horiz-adv-x="645" 
d="M304 208h-69v-208h-159v540h159v-204h64l123 204h184l-170 -256l195 -284h-194zM361 790h190l-170 -160h-120z" />
    <glyph glyph-name="afii10110" unicode="&#x45e;" horiz-adv-x="602" 
d="M191 -60q22 0 35.5 12t23.5 46l-233 542h180l127 -349l100 349h164l-183 -526q-22 -63 -42.5 -103t-44 -63.5t-50 -32.5t-60.5 -9q-23 0 -47.5 3.5t-38.5 9.5l1 139q13 -7 31 -12.5t37 -5.5zM302 615q-36 0 -68.5 9.5t-57 29.5t-39.5 52.5t-15 78.5h114q0 -45 18 -65.5
t48 -20.5t49 20.5t19 65.5h112q0 -46 -15 -78.5t-39.5 -52.5t-57 -29.5t-68.5 -9.5z" />
    <glyph glyph-name="afii10193" unicode="&#x45f;" horiz-adv-x="659" 
d="M256 0h-180v540h159v-406h189v406h160v-540h-180v-130h-148v130z" />
    <glyph glyph-name="afii10050" unicode="&#x490;" horiz-adv-x="589" 
d="M91 700h317v130h151v-277h-304v-553h-164v700z" />
    <glyph glyph-name="afii10098" unicode="&#x491;" horiz-adv-x="510" 
d="M76 540h259v130h141v-269h-241v-401h-159v540z" />
    <glyph glyph-name="uni0492" unicode="&#x492;" horiz-adv-x="600" 
d="M26 426h75v274h469v-147h-305v-127h183v-129h-183v-297h-164v297h-75v129z" />
    <glyph glyph-name="uni0493" unicode="&#x493;" horiz-adv-x="513" 
d="M79 195h-76v94h76v251h401v-139h-242v-112h159v-94h-159v-195h-159v195z" />
    <glyph glyph-name="uni049A" unicode="&#x49a;" horiz-adv-x="721" 
d="M91 700h164v-278h56l185 278h191l-240 -331l162 -227h103v-272h-146v130h-51l-201 290h-59v-290h-164v700z" />
    <glyph glyph-name="uni049B" unicode="&#x49b;" horiz-adv-x="645" 
d="M304 209h-69v-209h-159v540h159v-203h64l123 203h184l-170 -255l103 -151h93v-264h-148v130h-47z" />
    <glyph glyph-name="uni04A2" unicode="&#x4a2;" horiz-adv-x="831" 
d="M91 700h164v-272h293v272h164v-558h88v-272h-146v130h-106v286h-293v-286h-164v700z" />
    <glyph glyph-name="uni04A3" unicode="&#x4a3;" horiz-adv-x="716" 
d="M76 540h159v-200h209v200h160v-406h81v-264h-147v130h-94v205h-209v-205h-159v540z" />
    <glyph glyph-name="uni04AE" unicode="&#x4ae;" horiz-adv-x="666" 
d="M252 252l-242 448h187l139 -267l134 267h186l-240 -448v-252h-164v252z" />
    <glyph glyph-name="uni04AF" unicode="&#x4af;" horiz-adv-x="607" 
d="M18 540h179l110 -355l112 355h170l-206 -542v-188h-161v188z" />
    <glyph glyph-name="uni04B0" unicode="&#x4b0;" horiz-adv-x="666" 
d="M117 318h99l-206 382h187l139 -267l134 267h186l-205 -382h100v-126h-135v-192h-164v192h-135v126z" />
    <glyph glyph-name="uni04B1" unicode="&#x4b1;" horiz-adv-x="607" 
d="M383 -25v-165h-161v165h-124v94h97l-177 471h179l110 -355l112 355h170l-179 -471h97v-94h-124z" />
    <glyph glyph-name="uni04BA" unicode="&#x4ba;" horiz-adv-x="687" 
d="M93 700h163v-285q25 11 64 19.5t93 8.5q62 0 105.5 -15t71 -42t40 -65t12.5 -84v-237h-163v194q0 32 -8 52.5t-23 32.5t-36 16.5t-47 4.5q-31 0 -58.5 -6t-50.5 -17v-277h-163v700z" />
    <glyph glyph-name="uni04BB" unicode="&#x4bb;" horiz-adv-x="676" 
d="M76 760h159v-295q43 89 182 89q102 0 146 -47.5t44 -152.5v-354h-159v318q0 57 -23 80.5t-80 23.5q-60 0 -85 -28.5t-25 -89.5v-304h-159v760z" />
    <glyph glyph-name="uni04C0" unicode="&#x4c0;" horiz-adv-x="349" 
d="M93 700h163v-700h-163v700z" />
    <glyph glyph-name="uni04CF" unicode="&#x4cf;" horiz-adv-x="311" 
d="M76 0v760h159v-760h-159z" />
    <glyph glyph-name="uni04D8" unicode="&#x4d8;" horiz-adv-x="715" 
d="M501 394q-2 31 -12 62.5t-33.5 57.5t-62 42.5t-96.5 16.5q-54 0 -103.5 -9t-88.5 -27v147q106 28 217 28q112 0 181 -33t106.5 -85.5t50 -117.5t12.5 -128q0 -71 -18.5 -136.5t-57.5 -115t-100 -79t-146 -29.5q-145 0 -226.5 87t-81.5 270v49h459zM204 276
q1 -74 35 -113.5t113 -39.5q28 0 54 8.5t46.5 27t33.5 48.5t16 73h-298v-4z" />
    <glyph glyph-name="afii10846" unicode="&#x4d9;" horiz-adv-x="641" 
d="M433 309q-3 63 -40.5 91.5t-114.5 28.5q-29 0 -58 -4.5t-55 -13t-47.5 -19.5t-36.5 -23v136q10 9 30 17.5t48.5 15.5t64 11.5t77.5 4.5q80 0 135.5 -18t90.5 -54t51 -91t16 -129q0 -141 -73.5 -208.5t-210.5 -67.5q-75 0 -126 18t-82 52t-44.5 81.5t-13.5 106.5v65h389z
M313 106q116 0 120 112h-231q0 -53 24.5 -82.5t86.5 -29.5z" />
    <glyph glyph-name="uni04E8" unicode="&#x4e8;" horiz-adv-x="793" 
d="M50 350q0 190 85.5 277t262.5 87q94 0 159.5 -21.5t106.5 -66t59.5 -113t18.5 -163.5q0 -99 -22 -168t-65.5 -112.5t-108 -63.5t-148.5 -20q-170 0 -259 86.5t-89 277.5zM401 128q36 0 64.5 8t49.5 26.5t33.5 50t17.5 78.5h-339q5 -48 19.5 -79t37 -50t52 -26.5
t65.5 -7.5zM394 572q-73 0 -114 -35t-52 -118h337q-11 87 -54.5 120t-116.5 33z" />
    <glyph glyph-name="uni04E9" unicode="&#x4e9;" horiz-adv-x="675" 
d="M47 271q0 144 74 213.5t219 69.5q150 0 219 -68.5t69 -215.5t-71.5 -215.5t-219.5 -68.5q-152 0 -221 70t-69 215zM339 113q57 0 86.5 26t36.5 85h-249q8 -56 37 -83.5t89 -27.5zM337 427q-60 0 -88 -26.5t-36 -82.5h248q-7 57 -35 83t-89 26z" />
    <glyph glyph-name="uni1E9E" unicode="&#x1e9e;" horiz-adv-x="699" 
d="M70 460q0 69 21.5 117t58.5 78t87 43.5t106 13.5q78 0 148 -31.5t123 -100.5l-135 -171v-1q56 -6 91.5 -26t55 -47.5t26.5 -59t7 -60.5q0 -59 -19 -101.5t-52 -70.5t-77.5 -41t-95.5 -13q-56 0 -102 13v124q18 -5 33 -7t29 -2q22 0 42 4.5t35 15.5t24 30t9 49
q0 50 -29.5 72t-95.5 22h-35v79l112 152q-15 13 -38 20.5t-54 7.5q-57 0 -84 -32.5t-27 -85.5v-451h-164v460z" />
    <glyph glyph-name="figuredash" unicode="&#x2012;" horiz-adv-x="633" 
d="M83 412h468v-112h-468v112z" />
    <glyph glyph-name="endash" unicode="&#x2013;" horiz-adv-x="721" 
d="M94 349h534v-112h-534v112z" />
    <glyph glyph-name="emdash" unicode="&#x2014;" horiz-adv-x="885" 
d="M94 349h697v-112h-697v112z" />
    <glyph glyph-name="quoteleft" unicode="&#x2018;" horiz-adv-x="382" 
d="M335 634q-54 -8 -91 -33t-43 -59q52 0 75.5 -25t23.5 -64q0 -43 -25.5 -66.5t-76.5 -23.5q-60 0 -87 31t-27 95q0 48 13.5 87t37.5 69t56.5 49.5t70.5 27.5l73 -88v0z" />
    <glyph glyph-name="quoteright" unicode="&#x2019;" horiz-adv-x="382" 
d="M47 451q54 8 91 33t43 59q-52 0 -75.5 25t-23.5 64q0 43 25.5 66.5t76.5 23.5q60 0 87 -31t27 -95q0 -48 -13.5 -87t-37.5 -69t-56.5 -49.5t-70.5 -27.5l-73 88v0z" />
    <glyph glyph-name="quotesinglbase" unicode="&#x201a;" horiz-adv-x="382" 
d="M47 -103q54 8 91 33t43 59q-52 0 -75.5 25t-23.5 64q0 43 25.5 66.5t76.5 23.5q60 0 87 -31t27 -95q0 -48 -13.5 -87t-37.5 -69t-56.5 -49.5t-70.5 -27.5l-73 88v0z" />
    <glyph glyph-name="quotedblleft" unicode="&#x201c;" horiz-adv-x="656" 
d="M335 634q-54 -8 -91 -33t-43 -59q52 0 75.5 -25t23.5 -64q0 -43 -25.5 -66.5t-76.5 -23.5q-60 0 -87 31t-27 95q0 48 13.5 87t37.5 69t56.5 49.5t70.5 27.5l73 -88v0zM609 634q-54 -8 -91 -33t-43 -59q52 0 75.5 -25t23.5 -64q0 -43 -25.5 -66.5t-76.5 -23.5
q-60 0 -87 31t-27 95q0 48 13.5 87t37.5 69t56.5 49.5t70.5 27.5l73 -88v0z" />
    <glyph glyph-name="quotedblright" unicode="&#x201d;" horiz-adv-x="656" 
d="M47 451q54 8 91 33t43 59q-52 0 -75.5 25t-23.5 64q0 43 25.5 66.5t76.5 23.5q60 0 87 -31t27 -95q0 -48 -13.5 -87t-37.5 -69t-56.5 -49.5t-70.5 -27.5l-73 88v0zM321 451q54 8 91 33t43 59q-52 0 -75.5 25t-23.5 64q0 43 25.5 66.5t76.5 23.5q60 0 87 -31t27 -95
q0 -48 -13.5 -87t-37.5 -69t-56.5 -49.5t-70.5 -27.5l-73 88v0z" />
    <glyph glyph-name="quotedblbase" unicode="&#x201e;" horiz-adv-x="655" 
d="M320 -103q54 8 91 33t43 59q-52 0 -75.5 25t-23.5 64q0 43 25.5 66.5t76.5 23.5q60 0 87 -31t27 -95q0 -48 -13.5 -87t-37.5 -69t-56.5 -49.5t-70.5 -27.5l-73 88v0zM47 -103q54 8 91 33t43 59q-52 0 -75.5 25t-23.5 64q0 43 25.5 66.5t76.5 23.5q60 0 87 -31t27 -95
q0 -48 -13.5 -87t-37.5 -69t-56.5 -49.5t-70.5 -27.5l-73 88v0z" />
    <glyph glyph-name="dagger" unicode="&#x2020;" horiz-adv-x="550" 
d="M195 400h-160v140h160v160h160v-160h160v-140h-160v-400h-160v400z" />
    <glyph glyph-name="daggerdbl" unicode="&#x2021;" horiz-adv-x="550" 
d="M35 300h160v100h-160v140h160v160h160v-160h160v-140h-160v-100h160v-140h-160v-160h-160v160h-160v140z" />
    <glyph glyph-name="bullet" unicode="&#x2022;" horiz-adv-x="445" 
d="M74 352q0 30 10.5 57.5t30 47.5t47 32t60.5 12q34 0 61.5 -12t47 -32t30.5 -47.5t11 -57.5t-11 -57t-30.5 -47.5t-47 -32t-61.5 -11.5q-33 0 -60.5 11.5t-47 32t-30 47.5t-10.5 57z" />
    <glyph glyph-name="ellipsis" unicode="&#x2026;" horiz-adv-x="1093" 
d="M84 84q0 47 22.5 71.5t74.5 24.5t76 -22.5t24 -73.5q0 -45 -23 -71t-77 -26q-52 0 -74.5 26t-22.5 71zM449 84q0 47 22.5 71.5t74.5 24.5t76 -22.5t24 -73.5q0 -45 -23 -71t-77 -26q-52 0 -74.5 26t-22.5 71zM813 84q0 47 22.5 71.5t74.5 24.5t76 -22.5t24 -73.5
q0 -45 -23 -71t-77 -26q-52 0 -74.5 26t-22.5 71z" />
    <glyph glyph-name="perthousand" unicode="&#x2030;" horiz-adv-x="1314" 
d="M649 700h106l-496 -700h-107zM491 185q0 88 50 131t141 43t138 -43t47 -131q0 -46 -13.5 -79t-38.5 -54t-60 -31t-78 -10q-88 0 -137 42.5t-49 131.5zM599 185q0 -45 21 -64.5t60 -19.5q38 0 59 19.5t21 64.5t-20 64.5t-61 19.5q-40 0 -60 -19.5t-20 -64.5zM904 185
q0 88 50 131t141 43t138 -43t47 -131q0 -46 -13.5 -79t-38.5 -54t-60 -31t-78 -10q-88 0 -137 42.5t-49 131.5zM1012 185q0 -45 21 -64.5t60 -19.5q38 0 59 19.5t21 64.5t-20 64.5t-61 19.5q-40 0 -60 -19.5t-20 -64.5zM38 539q0 88 50 131t140 43q91 0 138.5 -43t47.5 -131
q0 -46 -13.5 -79t-38.5 -54t-60.5 -31t-78.5 -10q-88 0 -136.5 42.5t-48.5 131.5zM145 539q0 -45 21.5 -64.5t59.5 -19.5q39 0 59.5 19t20.5 65q0 45 -19.5 64.5t-60.5 19.5q-40 0 -60.5 -19.5t-20.5 -64.5z" />
    <glyph glyph-name="guilsinglleft" unicode="&#x2039;" horiz-adv-x="375" 
d="M47 269l130 216h144l-122 -216l122 -214h-145z" />
    <glyph glyph-name="guilsinglright" unicode="&#x203a;" horiz-adv-x="375" 
d="M175 270l-121 215h145l128 -215l-130 -215h-143z" />
    <glyph glyph-name="fraction" unicode="&#x2044;" horiz-adv-x="228" 
d="M304 713h102l-481 -727h-103z" />
    <glyph glyph-name="uni2070" unicode="&#x2070;" 
d="M24 591q0 116 52.5 167.5t147.5 51.5q105 0 153.5 -52t48.5 -167q0 -116 -52.5 -167t-147.5 -51q-100 0 -151 51.5t-51 166.5zM142 591q0 -68 20 -97t65 -29q43 0 61.5 28.5t18.5 97.5q0 68 -18 98t-65 30q-45 0 -63.5 -30.5t-18.5 -97.5z" />
    <glyph glyph-name="uni2074" unicode="&#x2074;" 
d="M19 549l224 251h132v-247h58v-91h-58v-81h-112v81h-244v87zM264 707h-1l-139 -155h140v155z" />
    <glyph glyph-name="uni2075" unicode="&#x2075;" 
d="M73 800h312v-91h-228l-3 -56q19 1 39.5 1.5t46.5 0.5q91 0 129.5 -36.5t38.5 -95.5q0 -30 -10.5 -57t-35 -47.5t-63.5 -33t-96 -12.5q-34 0 -70.5 4t-73.5 15v93q32 -11 61.5 -14t67.5 -3q53 0 77 14t24 40t-23 40t-77 14q-38 0 -66 -1.5t-62 -2.5z" />
    <glyph glyph-name="uni2076" unicode="&#x2076;" 
d="M233 373q-57 0 -95.5 15.5t-62.5 43.5t-34.5 66t-10.5 83q0 46 11.5 87.5t37.5 73t69.5 50t108.5 18.5q26 0 60 -2t67 -10v-93q-32 8 -62.5 10.5t-62.5 2.5q-21 0 -41.5 -5t-38 -16.5t-28.5 -30.5t-12 -47q27 17 58 27t66 10q74 0 117 -32.5t43 -101.5t-49.5 -109
t-140.5 -40zM141 550q2 -45 26 -68.5t66 -23.5q33 0 54.5 15.5t21.5 46.5q0 27 -19.5 41.5t-54.5 14.5q-26 0 -51.5 -6.5t-42.5 -19.5z" />
    <glyph glyph-name="uni2077" unicode="&#x2077;" 
d="M281 709h-242v91h372v-76l-179 -343h-127z" />
    <glyph glyph-name="uni2078" unicode="&#x2078;" 
d="M225 373q-97 0 -149 31t-52 93q0 39 24 67.5t70 37.5q-40 9 -61 34.5t-21 61.5q0 54 45.5 83t143.5 29t143.5 -29t45.5 -83q0 -36 -21 -61.5t-61 -34.5q46 -9 70 -37.5t24 -67.5q0 -62 -51.5 -93t-149.5 -31zM225 457q45 0 65.5 15.5t20.5 40.5q0 23 -18.5 37.5
t-67.5 14.5t-67.5 -14.5t-18.5 -37.5q0 -25 20.5 -40.5t65.5 -15.5zM225 727q-42 0 -60.5 -13t-18.5 -35q0 -21 17.5 -34.5t61.5 -13.5t61.5 13.5t17.5 34.5q0 22 -18.5 35t-60.5 13z" />
    <glyph glyph-name="uni2079" unicode="&#x2079;" 
d="M215 810q58 0 97 -15.5t62.5 -43t33.5 -65.5t10 -83q0 -46 -11 -88t-36 -73.5t-65 -50t-98 -18.5q-31 0 -69 3t-79 11v94q35 -9 67 -12.5t65 -3.5q20 0 40.5 5t37.5 16.5t28 30.5t12 47q-25 -19 -55 -30t-68 -11q-34 0 -63 8.5t-50.5 25.5t-33.5 43t-12 61q0 69 49 109
t138 40zM308 635q-2 42 -25 66.5t-68 24.5q-32 0 -52 -16t-20 -46q0 -31 20 -47t55 -16q29 0 51 10t39 24z" />
    <glyph glyph-name="uni2080" unicode="&#x2080;" 
d="M24 111q0 116 52.5 167.5t147.5 51.5q105 0 153.5 -52t48.5 -167q0 -116 -52.5 -167t-147.5 -51q-100 0 -151 51.5t-51 166.5zM142 111q0 -68 20 -97t65 -29q43 0 61.5 28.5t18.5 97.5q0 68 -18 98t-65 30q-45 0 -63.5 -30.5t-18.5 -97.5z" />
    <glyph glyph-name="uni2081" unicode="&#x2081;" 
d="M214 200l-109 -56l-45 81l175 95h95v-419h-116v299z" />
    <glyph glyph-name="uni2082" unicode="&#x2082;" 
d="M47 1l133 80q53 33 73.5 55.5t20.5 45.5q0 20 -17 36t-65 16q-32 0 -67.5 -6t-64.5 -20v99q38 13 73.5 18t76.5 5q49 0 84 -10t56.5 -27.5t31.5 -40.5t10 -50q0 -49 -36 -91.5t-122 -85.5l-49 -27v-1h211v-96h-349v100z" />
    <glyph glyph-name="uni2083" unicode="&#x2083;" 
d="M122 156h75q38 0 58.5 8.5t20.5 31.5q0 20 -19 30t-67 10q-36 0 -69.5 -4t-59.5 -14v93q36 12 79.5 15.5t81.5 3.5q51 0 84.5 -9.5t53.5 -25t28 -35.5t8 -40q0 -40 -26.5 -62.5t-76.5 -37.5v-1q66 -11 89.5 -38t23.5 -61q0 -54 -49.5 -90.5t-153.5 -36.5q-28 0 -68.5 3.5
t-80.5 15.5v96q38 -14 72 -17t63 -3q54 0 75.5 11.5t21.5 31.5q0 25 -18.5 35t-60.5 10h-85v80z" />
    <glyph glyph-name="uni2084" unicode="&#x2084;" 
d="M19 69l224 251h132v-247h58v-91h-58v-81h-112v81h-244v87zM264 227h-1l-139 -155h140v155z" />
    <glyph glyph-name="uni2085" unicode="&#x2085;" 
d="M73 320h312v-91h-228l-3 -56q19 1 39.5 1.5t46.5 0.5q91 0 129.5 -36.5t38.5 -95.5q0 -30 -10.5 -57t-35 -47.5t-63.5 -33t-96 -12.5q-34 0 -70.5 4t-73.5 15v93q32 -11 61.5 -14t67.5 -3q53 0 77 14t24 40t-23 40t-77 14q-38 0 -66 -1.5t-62 -2.5z" />
    <glyph glyph-name="uni2086" unicode="&#x2086;" 
d="M233 -107q-57 0 -95.5 15.5t-62.5 43.5t-34.5 66t-10.5 83q0 46 11.5 87.5t37.5 73t69.5 50t108.5 18.5q26 0 60 -2t67 -10v-93q-32 8 -62.5 10.5t-62.5 2.5q-21 0 -41.5 -5t-38 -16.5t-28.5 -30.5t-12 -47q27 17 58 27t66 10q74 0 117 -32.5t43 -101.5t-49.5 -109
t-140.5 -40zM141 70q2 -45 26 -68.5t66 -23.5q33 0 54.5 15.5t21.5 46.5q0 27 -19.5 41.5t-54.5 14.5q-26 0 -51.5 -6.5t-42.5 -19.5z" />
    <glyph glyph-name="uni2087" unicode="&#x2087;" 
d="M281 229h-242v91h372v-76l-179 -343h-127z" />
    <glyph glyph-name="uni2088" unicode="&#x2088;" 
d="M225 -107q-97 0 -149 31t-52 93q0 39 24 67.5t70 37.5q-40 9 -61 34.5t-21 61.5q0 54 45.5 83t143.5 29t143.5 -29t45.5 -83q0 -36 -21 -61.5t-61 -34.5q46 -9 70 -37.5t24 -67.5q0 -62 -51.5 -93t-149.5 -31zM225 -23q45 0 65.5 15.5t20.5 40.5q0 23 -18.5 37.5
t-67.5 14.5t-67.5 -14.5t-18.5 -37.5q0 -25 20.5 -40.5t65.5 -15.5zM225 247q-42 0 -60.5 -13t-18.5 -35q0 -21 17.5 -34.5t61.5 -13.5t61.5 13.5t17.5 34.5q0 22 -18.5 35t-60.5 13z" />
    <glyph glyph-name="uni2089" unicode="&#x2089;" 
d="M215 330q58 0 97 -15.5t62.5 -43t33.5 -65.5t10 -83q0 -46 -11 -88t-36 -73.5t-65 -50t-98 -18.5q-31 0 -69 3t-79 11v94q35 -9 67 -12.5t65 -3.5q20 0 40.5 5t37.5 16.5t28 30.5t12 47q-25 -19 -55 -30t-68 -11q-34 0 -63 8.5t-50.5 25.5t-33.5 43t-12 61q0 69 49 109
t138 40zM308 155q-2 42 -25 66.5t-68 24.5q-32 0 -52 -16t-20 -46q0 -31 20 -47t55 -16q29 0 51 10t39 24z" />
    <glyph glyph-name="Euro" unicode="&#x20ac;" horiz-adv-x="626" 
d="M399 713q124 0 179 -40l-39 -143q-20 15 -50.5 25t-75.5 10q-60 0 -92 -21t-46 -68h244l-24 -90h-234v-33v-37h215l-22 -91h-179q17 -48 50.5 -69t85.5 -21q56 0 95 14t65 32v-159q-26 -13 -69 -24t-104 -11q-131 0 -203 59t-95 179h-77l23 91h45q0 7 -0.5 14t-0.5 14
q0 11 0.5 21.5t1.5 20.5h-67l23 90h54q25 119 96 178t201 59z" />
    <glyph glyph-name="uni20B4" unicode="&#x20b4;" horiz-adv-x="636" 
d="M60 325h118q4 4 14.5 12.5t21.5 18t21.5 18t15.5 12.5h-191v78h273q17 17 26.5 34.5t9.5 32.5q0 17 -7 27.5t-18 16.5t-24 8t-26 2q-23 0 -42.5 -1t-37.5 -3t-36 -6.5t-40 -11.5v129q27 6 55.5 10t54 6t47.5 3t36 1q67 0 109 -15.5t65 -38t31.5 -49.5t8.5 -49
q0 -32 -10 -55t-23 -41h65v-78h-128q-5 -4 -15.5 -12.5t-21.5 -18t-21.5 -18t-15.5 -12.5h202v-79h-279q-16 -14 -21.5 -31.5t-5.5 -31.5q0 -36 28 -52t82 -16q28 0 69 5t83 22v-130q-55 -15 -104 -19.5t-94 -4.5q-77 0 -124.5 19.5t-73 47t-34 56.5t-8.5 48q0 29 7.5 50
t16.5 37h-59v79z" />
    <glyph glyph-name="uni20B8" unicode="&#x20b8;" horiz-adv-x="634" 
d="M235 463h-192v94h548v-94h-192v-463h-164v463zM43 700h548v-94h-548v94z" />
    <glyph glyph-name="uni20BD" unicode="&#x20bd;" horiz-adv-x="630" 
d="M266 271v-65h192v-109h-192v-97h-162v97h-62v109h62v65h-62v111h62v316q32 1 59 2.5t53.5 2.5t56.5 1.5t68 0.5q67 0 115.5 -11.5t79.5 -37t45.5 -67.5t14.5 -103q0 -58 -15 -98.5t-46.5 -66.5t-81.5 -38t-119 -12h-68zM327 568q-15 0 -31 -0.5t-30 -2.5v-184h53
q59 0 84.5 22.5t25.5 71.5t-21 71t-81 22z" />
    <glyph glyph-name="afii61352" unicode="&#x2116;" horiz-adv-x="1109" 
d="M66 700h175l169 -286q2 -3 8.5 -15.5t15.5 -30t19.5 -37t19.5 -36.5t15.5 -29t7.5 -14q0 4 -0.5 28.5t-0.5 53.5v54.5v30.5v281h159v-700h-169l-165 282q-2 3 -9.5 16.5t-17.5 32t-21 40t-21 40.5t-17.5 33t-9.5 18q0 -5 0.5 -31t1 -56.5t0.5 -57v-32.5v-285h-160v700z
M739 270h327v-120h-327v120zM724 519q0 39 8.5 74.5t29 62t53.5 42t82 15.5t83.5 -15.5t56 -41.5t31 -61.5t9.5 -75.5t-9.5 -75t-30 -61.5t-54 -42t-81.5 -15.5q-50 0 -84 15.5t-55 42t-30 61.5t-9 75zM843 519q0 -42 13 -66t45 -24q31 0 44.5 23.5t13.5 66.5q0 41 -13 65.5
t-45 24.5t-45 -24.5t-13 -65.5z" />
    <glyph glyph-name="uni2120" unicode="&#x2120;" horiz-adv-x="860" 
d="M399 700h105l86 -164h1l86 164h105v-325h-90v195l-71 -127h-62l-69 127h-1v-195h-90v325zM330 607q-20 11 -46 19t-61 8t-47.5 -6.5t-12.5 -18.5q0 -13 14 -18.5t35 -10t45.5 -9.5t45.5 -15.5t35 -29t14 -50.5q0 -27 -8 -47.5t-26.5 -34.5t-50 -21.5t-79.5 -7.5
q-23 0 -56 4.5t-64 15.5v89q19 -14 49.5 -23t68.5 -9t52 6.5t14 22.5q0 12 -14 18t-35 11t-46 10.5t-46 16.5t-35 29.5t-14 50.5q0 25 8 44t26.5 32t49.5 19t77 6q24 0 53.5 -4t53.5 -12v-85z" />
    <glyph glyph-name="trademark" unicode="&#x2122;" horiz-adv-x="842" 
d="M142 617h-99v83h295v-83h-100v-241h-96v241zM380 700h105l86 -164h2l85 164h105v-324h-90v194h-1l-70 -126h-61l-70 126h-1v-194h-90v324z" />
    <glyph glyph-name="onethird" unicode="&#x2153;" horiz-adv-x="950" 
d="M632 713h102l-481 -727h-103zM640 257h75q38 0 58.5 8.5t20.5 31.5q0 20 -19 30t-67 10q-36 0 -69.5 -4t-59.5 -14v93q36 12 79.5 15.5t81.5 3.5q51 0 84.5 -9.5t53.5 -25t28 -35.5t8 -40q0 -40 -26.5 -62.5t-76.5 -37.5v-1q66 -11 89.5 -38t23.5 -61q0 -54 -49.5 -90.5
t-153.5 -36.5q-28 0 -68.5 3.5t-80.5 15.5v96q38 -14 72 -17t63 -3q54 0 75.5 11.5t21.5 31.5q0 25 -18.5 35t-60.5 10h-85v80zM177 581l-109 -56l-45 81l175 95h95v-419h-116v299z" />
    <glyph glyph-name="twothirds" unicode="&#x2154;" horiz-adv-x="950" 
d="M675 713h102l-481 -727h-103zM663 257h75q38 0 58.5 8.5t20.5 31.5q0 20 -19 30t-67 10q-36 0 -69.5 -4t-59.5 -14v93q36 12 79.5 15.5t81.5 3.5q51 0 84.5 -9.5t53.5 -25t28 -35.5t8 -40q0 -40 -26.5 -62.5t-76.5 -37.5v-1q66 -11 89.5 -38t23.5 -61q0 -54 -49.5 -90.5
t-153.5 -36.5q-28 0 -68.5 3.5t-80.5 15.5v96q38 -14 72 -17t63 -3q54 0 75.5 11.5t21.5 31.5q0 25 -18.5 35t-60.5 10h-85v80zM13 382l133 80q53 33 73.5 55.5t20.5 45.5q0 20 -17 36t-65 16q-32 0 -67.5 -6t-64.5 -20v99q38 13 73.5 18t76.5 5q49 0 84 -10t56.5 -27.5
t31.5 -40.5t10 -50q0 -49 -36 -91.5t-122 -85.5l-49 -27v-1h211v-96h-349v100z" />
    <glyph glyph-name="oneeighth" unicode="&#x215b;" horiz-adv-x="950" 
d="M623 713h102l-481 -727h-103zM733 -6q-97 0 -149 31t-52 93q0 39 24 67.5t70 37.5q-40 9 -61 34.5t-21 61.5q0 54 45.5 83t143.5 29t143.5 -29t45.5 -83q0 -36 -21 -61.5t-61 -34.5q46 -9 70 -37.5t24 -67.5q0 -62 -51.5 -93t-149.5 -31zM733 78q45 0 65.5 15.5
t20.5 40.5q0 23 -18.5 37.5t-67.5 14.5t-67.5 -14.5t-18.5 -37.5q0 -25 20.5 -40.5t65.5 -15.5zM733 348q-42 0 -60.5 -13t-18.5 -35q0 -21 17.5 -34.5t61.5 -13.5t61.5 13.5t17.5 34.5q0 22 -18.5 35t-60.5 13zM175 581l-109 -56l-45 81l175 95h95v-419h-116v299z" />
    <glyph glyph-name="threeeighths" unicode="&#x215c;" horiz-adv-x="950" 
d="M641 713h102l-481 -727h-103zM742 -6q-97 0 -149 31t-52 93q0 39 24 67.5t70 37.5q-40 9 -61 34.5t-21 61.5q0 54 45.5 83t143.5 29t143.5 -29t45.5 -83q0 -36 -21 -61.5t-61 -34.5q46 -9 70 -37.5t24 -67.5q0 -62 -51.5 -93t-149.5 -31zM742 78q45 0 65.5 15.5
t20.5 40.5q0 23 -18.5 37.5t-67.5 14.5t-67.5 -14.5t-18.5 -37.5q0 -25 20.5 -40.5t65.5 -15.5zM742 348q-42 0 -60.5 -13t-18.5 -35q0 -21 17.5 -34.5t61.5 -13.5t61.5 13.5t17.5 34.5q0 22 -18.5 35t-60.5 13zM85 537h75q38 0 58.5 8.5t20.5 31.5q0 20 -19 30t-67 10
q-36 0 -69.5 -4t-59.5 -14v93q36 12 79.5 15.5t81.5 3.5q51 0 84.5 -9.5t53.5 -25t28 -35.5t8 -40q0 -40 -26.5 -62.5t-76.5 -37.5v-1q66 -11 89.5 -38t23.5 -61q0 -54 -49.5 -90.5t-153.5 -36.5q-28 0 -68.5 3.5t-80.5 15.5v96q38 -14 72 -17t63 -3q54 0 75.5 11.5
t21.5 31.5q0 25 -18.5 35t-60.5 10h-85v80z" />
    <glyph glyph-name="fiveeighths" unicode="&#x215d;" horiz-adv-x="950" 
d="M646 713h102l-481 -727h-103zM745 -6q-97 0 -149 31t-52 93q0 39 24 67.5t70 37.5q-40 9 -61 34.5t-21 61.5q0 54 45.5 83t143.5 29t143.5 -29t45.5 -83q0 -36 -21 -61.5t-61 -34.5q46 -9 70 -37.5t24 -67.5q0 -62 -51.5 -93t-149.5 -31zM745 78q45 0 65.5 15.5
t20.5 40.5q0 23 -18.5 37.5t-67.5 14.5t-67.5 -14.5t-18.5 -37.5q0 -25 20.5 -40.5t65.5 -15.5zM745 348q-42 0 -60.5 -13t-18.5 -35q0 -21 17.5 -34.5t61.5 -13.5t61.5 13.5t17.5 34.5q0 22 -18.5 35t-60.5 13zM39 701h312v-91h-228l-3 -56q19 1 39.5 1.5t46.5 0.5
q91 0 129.5 -36.5t38.5 -95.5q0 -30 -10.5 -57t-35 -47.5t-63.5 -33t-96 -12.5q-34 0 -70.5 4t-73.5 15v93q32 -11 61.5 -14t67.5 -3q53 0 77 14t24 40t-23 40t-77 14q-38 0 -66 -1.5t-62 -2.5z" />
    <glyph glyph-name="seveneighths" unicode="&#x215e;" horiz-adv-x="950" 
d="M612 713h102l-481 -727h-103zM738 -6q-97 0 -149 31t-52 93q0 39 24 67.5t70 37.5q-40 9 -61 34.5t-21 61.5q0 54 45.5 83t143.5 29t143.5 -29t45.5 -83q0 -36 -21 -61.5t-61 -34.5q46 -9 70 -37.5t24 -67.5q0 -62 -51.5 -93t-149.5 -31zM738 78q45 0 65.5 15.5
t20.5 40.5q0 23 -18.5 37.5t-67.5 14.5t-67.5 -14.5t-18.5 -37.5q0 -25 20.5 -40.5t65.5 -15.5zM738 348q-42 0 -60.5 -13t-18.5 -35q0 -21 17.5 -34.5t61.5 -13.5t61.5 13.5t17.5 34.5q0 22 -18.5 35t-60.5 13zM274 610h-242v91h372v-76l-179 -343h-127z" />
    <glyph glyph-name="minus" unicode="&#x2212;" horiz-adv-x="579" 
d="M54 384h470v-118h-470v118z" />
    <glyph glyph-name="infinity" unicode="&#x221e;" horiz-adv-x="732" 
d="M367 280l-50 -53q-26 -29 -57 -40t-63 -11q-41 0 -71 16t-49.5 41.5t-28.5 56t-9 60.5t9 61.5t28.5 57.5t49.5 43t71 17q29 0 61 -11.5t60 -40.5l49 -53l53 55q23 25 54 37.5t64 12.5q38 0 67.5 -14.5t49.5 -39.5t30.5 -57t10.5 -68q0 -29 -9 -59.5t-28.5 -56t-49.5 -42
t-72 -16.5q-32 0 -62 11.5t-57 40.5zM467 311q15 -15 29 -23t33 -8q26 0 43 19.5t17 50.5q0 35 -18 55t-41 20q-17 0 -33.5 -7.5t-36.5 -30.5l-32 -37zM266 394q-14 17 -27 24t-33 7q-30 0 -44.5 -23t-14.5 -52q0 -34 17.5 -51.5t39.5 -17.5q17 0 34 7.5t37 27.5l33 34z" />
    <glyph glyph-name="approxequal" unicode="&#x2248;" horiz-adv-x="614" 
d="M84 244q19 30 48 50.5t67 20.5q31 0 60.5 -10.5t57 -23t54 -23t51.5 -10.5q30 0 53.5 16t43.5 39l11 -107q-15 -24 -44 -44.5t-71 -20.5q-30 0 -57 10.5t-52.5 22.5t-51.5 22.5t-54 10.5q-15 0 -31.5 -6t-31 -15t-26 -19.5t-17.5 -20.5zM84 440q19 30 48 50.5t67 20.5
q31 0 60.5 -10.5t57 -23t54 -23t51.5 -10.5q30 0 53.5 16t43.5 39l11 -107q-15 -24 -44 -44.5t-71 -20.5q-30 0 -57 10.5t-52.5 22.5t-51.5 22.5t-54 10.5q-15 0 -31.5 -5.5t-31 -14.5t-26 -19.5t-17.5 -20.5z" />
    <glyph glyph-name="notequal" unicode="&#x2260;" horiz-adv-x="595" 
d="M63 495h278l53 90h102l-53 -90h89v-118h-158l-57 -96h215v-118h-284l-55 -95h-103l56 95h-83v118h152l57 96h-209v118z" />
    <glyph glyph-name="lessequal" unicode="&#x2264;" horiz-adv-x="576" 
d="M56 161h465v-118h-465v118zM56 473l465 170v-122l-311 -103v-2l311 -102v-122l-465 170v111z" />
    <glyph glyph-name="greaterequal" unicode="&#x2265;" horiz-adv-x="576" 
d="M56 161h465v-118h-465v118zM56 314l311 102v2l-311 103v122l465 -170v-111l-465 -170v122z" />
    <glyph glyph-name="lozenge" unicode="&#x25ca;" horiz-adv-x="622" 
d="M44 350l267 362l268 -362l-268 -362zM434 350l-123 163l-122 -163l122 -164z" />
    <glyph glyph-name="uniF406" unicode="&#xf406;" horiz-adv-x="485" 
d="M243 755q-143 0 -180 145l94 25q11 -38 33.5 -54t52.5 -16t52.5 16t33.5 54l94 -25q-37 -145 -180 -145z" />
    <glyph glyph-name="uniF407" unicode="&#xf407;" horiz-adv-x="485" 
d="M189 0h86l-10 -54q22 0 43 -5t37 -16.5t26 -30t10 -45.5q0 -26 -11 -46.5t-30.5 -35.5t-46 -23t-57.5 -8q-34 0 -58.5 4.5t-44.5 12.5l12 69q31 -13 63 -13q24 0 41.5 10t17.5 32q0 23 -19.5 30.5t-42.5 7.5h-17t-17 -2z" />
    <glyph glyph-name="uniF408" unicode="&#xf408;" horiz-adv-x="485" 
d="M163 925h160l120 -170h-121l-78 97l-80 -97h-121z" />
    <glyph glyph-name="uniF409" unicode="&#xf409;" horiz-adv-x="485" 
d="M166 -204q34 0 58 8.5t28 32.5q-5 -1 -10 -1h-10q-42 0 -64 14t-22 40t26 41.5t68 15.5q43 0 70 -21t27 -66q0 -52 -41 -86.5t-111 -34.5h-9t-10 1v56v0z" />
    <glyph glyph-name="uniF40A" unicode="&#xf40a;" horiz-adv-x="240" 
d="M91 700h144l-86 -200h-104z" />
    <glyph glyph-name="uniF40B" unicode="&#xf40b;" horiz-adv-x="485" 
d="M243 758q-47 0 -68.5 20.5t-21.5 61.5t21.5 61.5t68.5 20.5t68.5 -20.5t21.5 -61.5t-21.5 -61.5t-68.5 -20.5z" />
    <glyph glyph-name="uniF40C" unicode="&#xf40c;" horiz-adv-x="485" 
d="M126 840q0 25 9 47t24.5 37.5t37 24.5t47.5 9q25 0 47 -9t37.5 -24.5t24.5 -37.5t9 -47q0 -26 -9 -47.5t-24.5 -37t-37.5 -24.5t-47 -9q-26 0 -47.5 9t-37 24.5t-24.5 37t-9 47.5zM200 840q0 -21 12 -33t32 -12t32 12t12 33t-12 33t-32 12t-32 -12t-12 -33z" />
    <glyph glyph-name="uniF40D" unicode="&#xf40d;" horiz-adv-x="485" 
d="M48 780q1 32 10.5 57t25.5 41.5t36.5 25t43.5 8.5q22 0 41.5 -7.5t44.5 -18.5q13 -6 22 -10t16 -6.5t12.5 -3.5t12.5 -1q17 0 29 12t15 35l81 -13q-3 -61 -35.5 -96t-80.5 -35q-12 0 -22 1t-19.5 4t-20.5 7.5t-25 11.5q-23 11 -35 17.5t-26 6.5t-27.5 -12.5t-17.5 -35.5z
" />
    <glyph glyph-name="uniF40E" unicode="&#xf40e;" horiz-adv-x="485" 
d="M338 2q-43 -28 -66 -59.5t-23 -72.5q0 -27 17 -40.5t43 -13.5q34 0 62 16v-75q-17 -8 -41.5 -14.5t-57.5 -6.5q-39 0 -65 10t-41.5 25.5t-21.5 35t-6 38.5q0 27 11 51t29 45t41.5 38.5t48.5 30.5z" />
    <glyph glyph-name="zero.tab" unicode="&#xf4e0;" horiz-adv-x="650" 
d="M56 349q0 96 16.5 165t50 113t84.5 64.5t121 20.5q73 0 124 -21.5t82.5 -66t45.5 -113t14 -162.5q0 -98 -16.5 -167t-49.5 -112.5t-83.5 -63t-118.5 -19.5q-142 0 -206 88.5t-64 273.5zM220 347q0 -119 23 -172.5t86 -53.5q30 0 50 12t31.5 38.5t16 69.5t4.5 105
q0 63 -4 107t-16 72t-33 41t-54 13t-53 -13.5t-31.5 -42t-15.5 -72.5t-4 -104z" />
    <glyph glyph-name="one.tab" unicode="&#xf4e1;" horiz-adv-x="650" 
d="M91 135h208v389l-208 -117v145l257 150h112v-567h120v-135h-489v135z" />
    <glyph glyph-name="two.tab" unicode="&#xf4e2;" horiz-adv-x="650" 
d="M66 104q60 47 118.5 90t104.5 85t74 86t28 92q0 57 -27.5 82.5t-91.5 25.5q-58 0 -106.5 -19t-87.5 -52v174q42 20 100 32t129 12q76 0 126 -16t80 -44t42 -66.5t12 -83.5q0 -60 -20 -108t-55.5 -90t-84.5 -81t-107 -80h275v-143h-509v104z" />
    <glyph glyph-name="three.tab" unicode="&#xf4e3;" horiz-adv-x="650" 
d="M203 418h69q69 0 94 19.5t25 62.5q0 17 -5 30t-17.5 21.5t-35.5 13t-59 4.5q-55 0 -107.5 -16.5t-92.5 -42.5v158q24 9 53.5 17t61 14t64 9.5t62.5 3.5q74 0 122 -12.5t76 -36t39 -57t11 -75.5q0 -65 -33.5 -106.5t-105.5 -61.5q85 -11 123.5 -53.5t38.5 -109.5
q0 -49 -14.5 -88t-48 -66.5t-88.5 -42.5t-136 -15q-65 0 -127.5 12t-107.5 32v165q40 -28 96.5 -46.5t117.5 -18.5q42 0 68.5 5.5t41.5 16t20.5 25.5t5.5 35q0 18 -5.5 32.5t-19.5 24t-39.5 14.5t-65.5 5h-81v128z" />
    <glyph glyph-name="four.tab" unicode="&#xf4e4;" horiz-adv-x="650" 
d="M42 244l284 456h207v-403h83v-143h-83v-154h-162v154h-329v90zM373 545l-151 -249h151v249z" />
    <glyph glyph-name="five.tab" unicode="&#xf4e5;" horiz-adv-x="650" 
d="M111 700h436v-135h-313l-10 -121q19 3 49.5 4.5t59.5 1.5q69 0 115.5 -15t74.5 -42.5t40 -68t12 -91.5q0 -57 -14 -102t-47.5 -77t-90.5 -49t-142 -17q-45 0 -100.5 8t-103.5 25v161q15 -9 37 -18t48 -16.5t54.5 -12t57.5 -4.5q77 0 107 25t30 76q0 25 -6.5 43.5
t-23 30.5t-45 18t-73.5 6q-23 0 -48 -1.5t-49 -3.5t-45 -5t-35 -6z" />
    <glyph glyph-name="six.tab" unicode="&#xf4e6;" horiz-adv-x="650" 
d="M335 -12q-81 0 -136 22t-89 65t-48.5 106.5t-14.5 146.5q0 191 82 287.5t259 96.5q48 0 91 -7.5t78 -19.5v-159q-26 17 -66.5 31.5t-106.5 14.5q-40 0 -75 -11.5t-61.5 -35t-42 -59t-15.5 -84.5q0 -8 0.5 -12.5t0.5 -8.5q30 48 75.5 72t114.5 24q115 0 167.5 -58.5
t52.5 -160.5q0 -130 -69.5 -190t-196.5 -60zM214 261q-2 -75 28 -109t87 -34q48 0 77 25.5t29 85.5q0 61 -23.5 86.5t-79.5 25.5t-82 -24t-36 -56z" />
    <glyph glyph-name="seven.tab" unicode="&#xf4e7;" horiz-adv-x="650" 
d="M413 555h-350v145h533v-96l-266 -604h-175z" />
    <glyph glyph-name="eight.tab" unicode="&#xf4e8;" horiz-adv-x="650" 
d="M46 193q0 33 6.5 61t22 50.5t42 39.5t66.5 28q-66 19 -93 55.5t-27 101.5q0 43 14.5 77t46.5 58t82 36.5t122 12.5q138 0 197.5 -45t59.5 -131q0 -30 -5 -55.5t-18.5 -46t-36 -36.5t-57.5 -27q40 -9 66.5 -24t42 -37t22 -50t6.5 -64q0 -47 -15 -85.5t-48.5 -66t-86 -42.5
t-127.5 -15q-76 0 -129.5 13.5t-87.5 39.5t-49.5 64t-15.5 88zM213 218q0 -57 31 -80t85 -23t82 24.5t28 78.5q0 95 -113 95q-57 0 -85 -25.5t-28 -69.5zM222 500q0 -43 25 -65t79 -22q55 0 77.5 23t22.5 65q0 46 -22.5 65.5t-79.5 19.5q-56 0 -79 -21.5t-23 -64.5z" />
    <glyph glyph-name="nine.tab" unicode="&#xf4e9;" horiz-adv-x="650" 
d="M313 712q81 0 136 -22t89 -65t48.5 -106.5t14.5 -146.5q0 -191 -82 -287.5t-259 -96.5q-48 0 -91 7.5t-78 19.5v159q26 -17 66.5 -31.5t106.5 -14.5q40 0 75 11.5t61.5 35t42 59t15.5 84.5q0 8 -0.5 12.5t-0.5 8.5q-30 -48 -75 -72t-114 -24q-114 0 -167.5 58.5
t-53.5 160.5q0 130 69 190t197 60zM434 442q2 72 -28 106t-87 34q-48 -1 -76.5 -26t-29.5 -85q-1 -58 24 -85t80 -27q56 0 82 24t35 59z" />
    <glyph glyph-name="dollar.tab" unicode="&#xf4ec;" horiz-adv-x="650" 
d="M415 194q0 30 -25.5 46.5t-63.5 29t-83 26.5t-83 39t-63.5 66.5t-25.5 108.5q0 81 45.5 133t153.5 66v91h124v-89q51 -3 93 -11.5t71 -20.5v-161q-38 26 -91 43.5t-110 17.5q-36 0 -59 -5t-36.5 -14t-19 -21t-5.5 -26q0 -29 26.5 -45t66 -28.5t86 -26t86 -39t66 -66.5
t26.5 -108q0 -86 -47.5 -139t-152.5 -68v-113h-124v108q-59 3 -111 15.5t-85 31.5v167q13 -12 34 -26t49 -26t63 -20.5t77 -8.5q63 0 90.5 20t27.5 53z" />
    <glyph glyph-name="Euro.tab" unicode="&#xf4ed;" horiz-adv-x="650" 
d="M413 713q124 0 179 -40l-39 -143q-20 15 -50.5 25t-75.5 10q-60 0 -92 -21t-46 -68h244l-24 -90h-234v-33v-37h215l-22 -91h-179q17 -48 50.5 -69t85.5 -21q56 0 95 14t65 32v-159q-26 -13 -69 -24t-104 -11q-131 0 -203 59t-95 179h-77l23 91h45q0 7 -0.5 14t-0.5 14
q0 11 0.5 21.5t1.5 20.5h-67l23 90h54q25 119 96 178t201 59z" />
    <glyph glyph-name="cent.tab" unicode="&#xf4ee;" horiz-adv-x="650" 
d="M315 -8q-57 7 -98 30.5t-67 60.5t-38 85t-12 104q0 54 13 101t39 83t66.5 59t96.5 29v96h89v-93q48 -3 77 -10.5t48 -15.5v-123q-26 10 -56 17.5t-76 7.5q-69 0 -106 -37.5t-37 -109.5q0 -76 39 -119t120 -43q40 0 71.5 8.5t51.5 19.5v-122q-19 -8 -50.5 -18t-81.5 -13
v-109h-89v112z" />
    <glyph glyph-name="sterling.tab" unicode="&#xf4ef;" horiz-adv-x="650" 
d="M84 135h86v172h-86v111h86v59q0 46 13.5 89t44 75t78.5 51.5t117 19.5q78 0 153 -19v-133q-38 11 -65 14.5t-57 3.5q-63 0 -91.5 -31t-28.5 -85v-44h158v-111h-158v-172h245v-135h-495v135z" />
    <glyph glyph-name="yen.tab" unicode="&#xf4fa;" horiz-adv-x="650" 
d="M99 224h144v41l-10 20h-134v84h92l-166 331h188l114 -258l110 258h189l-166 -331h92v-84h-134l-10 -20v-41h144v-84h-144v-140h-165v140h-144v84z" />
    <glyph glyph-name="florin.tab" unicode="&#xf4fb;" horiz-adv-x="650" 
d="M44 -87q16 -3 38 -3q14 0 27.5 3t25.5 12t21 27t15 48l76 385h-89l26 125h88l13 63q16 84 68.5 134.5t151.5 50.5q28 0 48.5 -2.5t41.5 -6.5l-24 -122q-6 2 -18.5 4t-28.5 2q-23 0 -39.5 -4.5t-27.5 -15.5t-18 -29t-12 -45l-6 -29h122l-25 -125h-122l-75 -381
q-11 -55 -30 -97t-47.5 -70t-68 -42t-92.5 -14q-23 0 -39 2t-27 4z" />
    <glyph glyph-name="uni20B4.tab" unicode="&#xf4fc;" horiz-adv-x="650" 
d="M67 325h118q4 4 14.5 12.5t21.5 18t21.5 18t15.5 12.5h-191v78h273q17 17 26.5 34.5t9.5 32.5q0 17 -7 27.5t-18 16.5t-24 8t-26 2q-23 0 -42.5 -1t-37.5 -3t-36 -6.5t-40 -11.5v129q27 6 55.5 10t54 6t47.5 3t36 1q67 0 109 -15.5t65 -38t31.5 -49.5t8.5 -49
q0 -32 -10 -55t-23 -41h65v-78h-128q-5 -4 -15.5 -12.5t-21.5 -18t-21.5 -18t-15.5 -12.5h202v-79h-279q-16 -14 -21.5 -31.5t-5.5 -31.5q0 -36 28 -52t82 -16q28 0 69 5t83 22v-130q-55 -15 -104 -19.5t-94 -4.5q-77 0 -124.5 19.5t-73 47t-34 56.5t-8.5 48q0 29 7.5 50
t16.5 37h-59v79z" />
    <glyph glyph-name="uni20BD.tab" unicode="&#xf4fd;" horiz-adv-x="650" 
d="M265 271v-65h192v-109h-192v-97h-162v97h-62v109h62v65h-62v111h62v316q32 1 59 2.5t53.5 2.5t56.5 1.5t68 0.5q67 0 115.5 -11.5t79.5 -37t45.5 -67.5t14.5 -103q0 -58 -15 -98.5t-46.5 -66.5t-81.5 -38t-119 -12h-68zM326 568q-15 0 -31 -0.5t-30 -2.5v-184h53
q59 0 84.5 22.5t25.5 71.5t-21 71t-81 22z" />
    <glyph glyph-name="uni20B8.tab" unicode="&#xf5f3;" horiz-adv-x="650" 
d="M244 463h-192v94h548v-94h-192v-463h-164v463zM52 700h548v-94h-548v94z" />
    <glyph glyph-name="zero.denominator" unicode="&#xf655;" 
d="M24 211q0 116 52.5 167.5t147.5 51.5q105 0 153.5 -52t48.5 -167q0 -116 -52.5 -167t-147.5 -51q-100 0 -151 51.5t-51 166.5zM142 211q0 -68 20 -97t65 -29q43 0 61.5 28.5t18.5 97.5q0 68 -18 98t-65 30q-45 0 -63.5 -30.5t-18.5 -97.5z" />
    <glyph glyph-name="one.denominator" unicode="&#xf656;" 
d="M214 300l-109 -56l-45 81l175 95h95v-419h-116v299z" />
    <glyph glyph-name="two.denominator" unicode="&#xf657;" 
d="M47 101l133 80q53 33 73.5 55.5t20.5 45.5q0 20 -17 36t-65 16q-32 0 -67.5 -6t-64.5 -20v99q38 13 73.5 18t76.5 5q49 0 84 -10t56.5 -27.5t31.5 -40.5t10 -50q0 -49 -36 -91.5t-122 -85.5l-49 -27v-1h211v-96h-349v100z" />
    <glyph glyph-name="three.denominator" unicode="&#xf658;" 
d="M122 256h75q38 0 58.5 8.5t20.5 31.5q0 20 -19 30t-67 10q-36 0 -69.5 -4t-59.5 -14v93q36 12 79.5 15.5t81.5 3.5q51 0 84.5 -9.5t53.5 -25t28 -35.5t8 -40q0 -40 -26.5 -62.5t-76.5 -37.5v-1q66 -11 89.5 -38t23.5 -61q0 -54 -49.5 -90.5t-153.5 -36.5q-28 0 -68.5 3.5
t-80.5 15.5v96q38 -14 72 -17t63 -3q54 0 75.5 11.5t21.5 31.5q0 25 -18.5 35t-60.5 10h-85v80z" />
    <glyph glyph-name="four.denominator" unicode="&#xf659;" 
d="M19 169l224 251h132v-247h58v-91h-58v-81h-112v81h-244v87zM264 327h-1l-139 -155h140v155z" />
    <glyph glyph-name="five.denominator" unicode="&#xf65a;" 
d="M73 420h312v-91h-228l-3 -56q19 1 39.5 1.5t46.5 0.5q91 0 129.5 -36.5t38.5 -95.5q0 -30 -10.5 -57t-35 -47.5t-63.5 -33t-96 -12.5q-34 0 -70.5 4t-73.5 15v93q32 -11 61.5 -14t67.5 -3q53 0 77 14t24 40t-23 40t-77 14q-38 0 -66 -1.5t-62 -2.5z" />
    <glyph glyph-name="six.denominator" unicode="&#xf65b;" 
d="M233 -7q-57 0 -95.5 15.5t-62.5 43.5t-34.5 66t-10.5 83q0 46 11.5 87.5t37.5 73t69.5 50t108.5 18.5q26 0 60 -2t67 -10v-93q-32 8 -62.5 10.5t-62.5 2.5q-21 0 -41.5 -5t-38 -16.5t-28.5 -30.5t-12 -47q27 17 58 27t66 10q74 0 117 -32.5t43 -101.5t-49.5 -109
t-140.5 -40zM141 170q2 -45 26 -68.5t66 -23.5q33 0 54.5 15.5t21.5 46.5q0 27 -19.5 41.5t-54.5 14.5q-26 0 -51.5 -6.5t-42.5 -19.5z" />
    <glyph glyph-name="seven.denominator" unicode="&#xf65c;" 
d="M281 329h-242v91h372v-76l-179 -343h-127z" />
    <glyph glyph-name="eight.denominator" unicode="&#xf65d;" 
d="M225 -7q-97 0 -149 31t-52 93q0 39 24 67.5t70 37.5q-40 9 -61 34.5t-21 61.5q0 54 45.5 83t143.5 29t143.5 -29t45.5 -83q0 -36 -21 -61.5t-61 -34.5q46 -9 70 -37.5t24 -67.5q0 -62 -51.5 -93t-149.5 -31zM225 77q45 0 65.5 15.5t20.5 40.5q0 23 -18.5 37.5t-67.5 14.5
t-67.5 -14.5t-18.5 -37.5q0 -25 20.5 -40.5t65.5 -15.5zM225 347q-42 0 -60.5 -13t-18.5 -35q0 -21 17.5 -34.5t61.5 -13.5t61.5 13.5t17.5 34.5q0 22 -18.5 35t-60.5 13z" />
    <glyph glyph-name="nine.denominator" unicode="&#xf65e;" 
d="M215 430q58 0 97 -15.5t62.5 -43t33.5 -65.5t10 -83q0 -46 -11 -88t-36 -73.5t-65 -50t-98 -18.5q-31 0 -69 3t-79 11v94q35 -9 67 -12.5t65 -3.5q20 0 40.5 5t37.5 16.5t28 30.5t12 47q-25 -19 -55 -30t-68 -11q-34 0 -63 8.5t-50.5 25.5t-33.5 43t-12 61q0 69 49 109
t138 40zM308 255q-2 42 -25 66.5t-68 24.5q-32 0 -52 -16t-20 -46q0 -31 20 -47t55 -16q29 0 51 10t39 24z" />
    <glyph glyph-name="zero.numerator" unicode="&#xf661;" 
d="M24 492q0 116 52.5 167.5t147.5 51.5q105 0 153.5 -52t48.5 -167q0 -116 -52.5 -167t-147.5 -51q-100 0 -151 51.5t-51 166.5zM142 492q0 -68 20 -97t65 -29q43 0 61.5 28.5t18.5 97.5q0 68 -18 98t-65 30q-45 0 -63.5 -30.5t-18.5 -97.5z" />
    <glyph glyph-name="one.numerator" unicode="&#xf662;" 
d="M214 581l-109 -56l-45 81l175 95h95v-419h-116v299z" />
    <glyph glyph-name="two.numerator" unicode="&#xf663;" 
d="M47 382l133 80q53 33 73.5 55.5t20.5 45.5q0 20 -17 36t-65 16q-32 0 -67.5 -6t-64.5 -20v99q38 13 73.5 18t76.5 5q49 0 84 -10t56.5 -27.5t31.5 -40.5t10 -50q0 -49 -36 -91.5t-122 -85.5l-49 -27v-1h211v-96h-349v100z" />
    <glyph glyph-name="three.numerator" unicode="&#xf664;" 
d="M122 537h75q38 0 58.5 8.5t20.5 31.5q0 20 -19 30t-67 10q-36 0 -69.5 -4t-59.5 -14v93q36 12 79.5 15.5t81.5 3.5q51 0 84.5 -9.5t53.5 -25t28 -35.5t8 -40q0 -40 -26.5 -62.5t-76.5 -37.5v-1q66 -11 89.5 -38t23.5 -61q0 -54 -49.5 -90.5t-153.5 -36.5q-28 0 -68.5 3.5
t-80.5 15.5v96q38 -14 72 -17t63 -3q54 0 75.5 11.5t21.5 31.5q0 25 -18.5 35t-60.5 10h-85v80z" />
    <glyph glyph-name="four.numerator" unicode="&#xf665;" 
d="M19 450l224 251h132v-247h58v-91h-58v-81h-112v81h-244v87zM264 608h-1l-139 -155h140v155z" />
    <glyph glyph-name="five.numerator" unicode="&#xf666;" 
d="M73 701h312v-91h-228l-3 -56q19 1 39.5 1.5t46.5 0.5q91 0 129.5 -36.5t38.5 -95.5q0 -30 -10.5 -57t-35 -47.5t-63.5 -33t-96 -12.5q-34 0 -70.5 4t-73.5 15v93q32 -11 61.5 -14t67.5 -3q53 0 77 14t24 40t-23 40t-77 14q-38 0 -66 -1.5t-62 -2.5z" />
    <glyph glyph-name="six.numerator" unicode="&#xf667;" 
d="M233 274q-57 0 -95.5 15.5t-62.5 43.5t-34.5 66t-10.5 83q0 46 11.5 87.5t37.5 73t69.5 50t108.5 18.5q26 0 60 -2t67 -10v-93q-32 8 -62.5 10.5t-62.5 2.5q-21 0 -41.5 -5t-38 -16.5t-28.5 -30.5t-12 -47q27 17 58 27t66 10q74 0 117 -32.5t43 -101.5t-49.5 -109
t-140.5 -40zM141 451q2 -45 26 -68.5t66 -23.5q33 0 54.5 15.5t21.5 46.5q0 27 -19.5 41.5t-54.5 14.5q-26 0 -51.5 -6.5t-42.5 -19.5z" />
    <glyph glyph-name="seven.numerator" unicode="&#xf668;" 
d="M281 610h-242v91h372v-76l-179 -343h-127z" />
    <glyph glyph-name="eight.numerator" unicode="&#xf669;" 
d="M225 274q-97 0 -149 31t-52 93q0 39 24 67.5t70 37.5q-40 9 -61 34.5t-21 61.5q0 54 45.5 83t143.5 29t143.5 -29t45.5 -83q0 -36 -21 -61.5t-61 -34.5q46 -9 70 -37.5t24 -67.5q0 -62 -51.5 -93t-149.5 -31zM225 358q45 0 65.5 15.5t20.5 40.5q0 23 -18.5 37.5
t-67.5 14.5t-67.5 -14.5t-18.5 -37.5q0 -25 20.5 -40.5t65.5 -15.5zM225 628q-42 0 -60.5 -13t-18.5 -35q0 -21 17.5 -34.5t61.5 -13.5t61.5 13.5t17.5 34.5q0 22 -18.5 35t-60.5 13z" />
    <glyph glyph-name="nine.numerator" unicode="&#xf66a;" 
d="M215 711q58 0 97 -15.5t62.5 -43t33.5 -65.5t10 -83q0 -46 -11 -88t-36 -73.5t-65 -50t-98 -18.5q-31 0 -69 3t-79 11v94q35 -9 67 -12.5t65 -3.5q20 0 40.5 5t37.5 16.5t28 30.5t12 47q-25 -19 -55 -30t-68 -11q-34 0 -63 8.5t-50.5 25.5t-33.5 43t-12 61q0 69 49 109
t138 40zM308 536q-2 42 -25 66.5t-68 24.5q-32 0 -52 -16t-20 -46q0 -31 20 -47t55 -16q29 0 51 10t39 24z" />
    <glyph glyph-name="uniF6BA" unicode="&#xf6ba;" horiz-adv-x="494" 
d="M87 410h320v-121h-320v121z" />
    <glyph glyph-name="uniF6BB" unicode="&#xf6bb;" horiz-adv-x="721" 
d="M94 406h534v-112h-534v112z" />
    <glyph glyph-name="uniF6BC" unicode="&#xf6bc;" horiz-adv-x="885" 
d="M94 406h697v-112h-697v112z" />
    <glyph glyph-name="uniF6C3" unicode="&#xf6c3;" horiz-adv-x="485" 
d="M173 -197q32 0 54 8.5t25 31.5q-5 -1 -9.5 -1h-9.5q-37 0 -58 13t-21 38t24 39.5t63 14.5q40 0 65.5 -20t25.5 -62q0 -50 -38.5 -83t-104.5 -33h-8t-8 1v53v0z" />
    <glyph glyph-name="uniF6C9" unicode="&#xf6c9;" horiz-adv-x="485" 
d="M224 925h192l-178 -170h-122z" />
    <glyph glyph-name="uniF6CA" unicode="&#xf6ca;" horiz-adv-x="485" 
d="M43 935h121l79 -97l79 97h121l-120 -170h-160z" />
    <glyph glyph-name="uniF6CB" unicode="&#xf6cb;" horiz-adv-x="485" 
d="M129 762q-45 0 -65.5 19.5t-20.5 58.5t20.5 58.5t65.5 19.5t65.5 -19.5t20.5 -58.5t-20.5 -58.5t-65.5 -19.5zM357 762q-45 0 -65.5 19.5t-20.5 58.5t20.5 58.5t65.5 19.5t65.5 -19.5t20.5 -58.5t-20.5 -58.5t-65.5 -19.5z" />
    <glyph glyph-name="uniF6CE" unicode="&#xf6ce;" horiz-adv-x="485" 
d="M369 760h-120l-160 160h192z" />
    <glyph glyph-name="uniF6CF" unicode="&#xf6cf;" horiz-adv-x="485" 
d="M57 925h172l-100 -170h-122zM315 925h192l-160 -170h-132z" />
    <glyph glyph-name="uniF6D0" unicode="&#xf6d0;" horiz-adv-x="485" 
d="M68 892h350v-104h-350v104z" />
    <glyph glyph-name="uniF6D1" unicode="&#xf6d1;" horiz-adv-x="485" 
d="M243 755q-39 0 -74 9.5t-60.5 29.5t-40.5 52.5t-15 78.5h116q0 -45 18 -65t56 -20t57 20t19 65h114q0 -46 -15 -78.5t-40.5 -52.5t-60.5 -29.5t-74 -9.5z" />
    <glyph glyph-name="uniF6D4" unicode="&#xf6d4;" horiz-adv-x="485" 
d="M243 615q-36 0 -68.5 9.5t-57 29.5t-39.5 52.5t-15 78.5h114q0 -45 18 -65.5t48 -20.5t49 20.5t19 65.5h112q0 -46 -15 -78.5t-39.5 -52.5t-57 -29.5t-68.5 -9.5z" />
    <glyph glyph-name="uniFEFF" unicode="&#xfeff;" horiz-adv-x="0" 
 />
    <glyph glyph-name="percent.tab" horiz-adv-x="650" 
d="M520 700h107l-493 -700h-107zM26 542q0 87 37.5 128.5t103.5 41.5t102 -41t36 -129q0 -92 -38 -131.5t-101 -39.5q-66 0 -103 40.5t-37 130.5zM210 542q0 45 -11 63.5t-32 18.5q-23 0 -34 -18.5t-11 -63.5q0 -46 12 -64.5t33 -18.5q20 0 31 17.5t12 65.5zM352 158
q0 87 37.5 128.5t103.5 41.5t102 -41t36 -129q0 -92 -38 -131.5t-101 -39.5q-66 0 -103 40.5t-37 130.5zM536 158q0 45 -11 63t-32 18q-23 0 -33.5 -18t-10.5 -63q0 -46 11.5 -64.5t33.5 -18.5q20 0 31 17.5t11 65.5z" />
    <glyph glyph-name="plus.tab" horiz-adv-x="650" 
d="M91 392h174v174h121v-174h173v-120h-173v-174h-121v174h-174v120z" />
    <glyph glyph-name="less.tab" horiz-adv-x="650" 
d="M78 377l465 170v-123l-311 -102v-2l311 -102v-123l-465 170v112z" />
    <glyph glyph-name="equal.tab" horiz-adv-x="650" 
d="M89 282h470v-118h-470v118zM89 495h470v-118h-470v118z" />
    <glyph glyph-name="greater.tab" horiz-adv-x="650" 
d="M108 218l310 102v2l-310 102v123l464 -170v-112l-464 -170v123z" />
    <glyph glyph-name="multiply.tab" horiz-adv-x="650" 
d="M243 324l-134 139l83 83l133 -137l134 137l84 -83l-135 -139l135 -138l-84 -82l-134 137l-133 -137l-83 82z" />
    <glyph glyph-name="divide.tab" horiz-adv-x="650" 
d="M246 133q0 37 21 57.5t59 20.5q35 0 56.5 -21t21.5 -57q0 -38 -20 -58t-58 -20q-37 0 -58.5 20.5t-21.5 57.5zM246 517q0 37 21 57.5t59 20.5q35 0 56.5 -21t21.5 -57q0 -38 -20 -58t-58 -20q-37 0 -58.5 21t-21.5 57zM90 384h470v-118h-470v118z" />
    <glyph glyph-name="perthousand.tab" horiz-adv-x="650" 
d="M46 247l-32 68l465 221l31 -69zM11 567q0 75 31.5 109t88.5 34q56 0 90.5 -32.5t34.5 -110.5q0 -79 -32.5 -112t-86.5 -33q-60 0 -93 33t-33 112zM96 567q0 -35 10 -47.5t30 -12.5q17 0 26 11.5t10 48.5q0 32 -9 45t-29 13t-29 -13t-9 -45zM112 135q0 75 31.5 109
t88.5 34q56 0 90.5 -32.5t34.5 -110.5q0 -79 -32.5 -112t-86.5 -33q-60 0 -93 33t-33 112zM197 135q0 -35 10 -47.5t30 -12.5q17 0 26 11.5t10 48.5q0 32 -9 45t-29 13t-29 -13t-9 -45zM385 135q0 75 31.5 109t88.5 34q56 0 90.5 -32.5t34.5 -110.5q0 -79 -32.5 -112
t-86.5 -33q-60 0 -93 33t-33 112zM470 135q0 -35 10 -47.5t30 -12.5q17 0 26 11.5t10 48.5q0 32 -9 45t-29 13t-29 -13t-9 -45z" />
    <glyph glyph-name="minus.tab" horiz-adv-x="650" 
d="M90 384h470v-118h-470v118z" />
    <glyph glyph-name="f_b" horiz-adv-x="1105" 
d="M485 627q-28 2 -58.5 4t-66.5 2q-39 0 -57 -11t-19 -51v-31h126v-133h-126v-407h-160v407h-91v133h92v48q0 48 11 82t35 55.5t62.5 31.5t93.5 10q54 0 89.5 -2.5t68.5 -4.5h159v-295q21 37 63.5 63t120.5 26q58 0 101.5 -14.5t72 -46.5t42.5 -84t14 -127q0 -154 -57 -225
t-180 -71q-39 0 -68.5 7t-51.5 18t-36.5 26t-24.5 31l-5 -68h-150v627zM644 250q0 -136 126 -136q64 0 93 38t29 126q0 45 -8.5 73.5t-24 45t-38.5 23t-51 6.5q-67 0 -96.5 -34.5t-29.5 -98.5v-43z" />
    <glyph glyph-name="f_f_b" horiz-adv-x="1465" 
d="M124 407h-91v133h92v48q0 48 10.5 82t34.5 55.5t62.5 31.5t94.5 10q41 0 65 -3t45 -8v-133q-9 3 -27 6.5t-51 3.5q-39 0 -57 -11t-18 -51v-31h201v48q0 48 11 82t35 55.5t62.5 31.5t93.5 10q54 0 89.5 -2.5t68.5 -4.5h159v-295q21 37 63.5 63t120.5 26q58 0 101.5 -14.5
t72 -46.5t42.5 -84t14 -127q0 -154 -57 -225t-180 -71q-39 0 -68.5 7t-51.5 18t-36.5 26t-24.5 31l-5 -68h-150v627q-28 2 -58.5 4t-66.5 2q-39 0 -57 -11t-19 -51v-31h126v-133h-126v-407h-160v407h-200v-407h-160v407zM1004 250q0 -136 126 -136q64 0 93 38t29 126
q0 45 -8.5 73.5t-24 45t-38.5 23t-51 6.5q-67 0 -96.5 -34.5t-29.5 -98.5v-43z" />
    <glyph glyph-name="f_f_h" horiz-adv-x="1445" 
d="M124 407h-91v133h92v48q0 48 10.5 82t34.5 55.5t62.5 31.5t94.5 10q41 0 65 -3t45 -8v-133q-9 3 -27 6.5t-51 3.5q-39 0 -57 -11t-18 -51v-31h201v48q0 48 11 82t35 55.5t62.5 31.5t93.5 10q54 0 89.5 -2.5t68.5 -4.5h159v-295q43 89 182 89q102 0 146.5 -48t44.5 -152
v-354h-160v318q0 57 -22.5 80.5t-79.5 23.5q-61 0 -86 -28.5t-25 -89.5v-304h-159v627q-28 2 -58.5 4t-66.5 2q-39 0 -57 -11t-19 -51v-31h126v-133h-126v-407h-160v407h-200v-407h-160v407z" />
    <glyph glyph-name="f_f_j" horiz-adv-x="1085" 
d="M124 407h-91v133h92v48q0 48 10.5 82t34.5 55.5t62.5 31.5t94.5 10q41 0 65 -3t45 -8v-133q-9 3 -27 6.5t-51 3.5q-39 0 -57 -11t-18 -51v-31h201v48q0 48 10.5 82t34.5 55.5t62 31.5t92 10q27 0 50.5 -3.5t40.5 -5.5v-133q-11 2 -25.5 5t-33.5 3q-37 0 -54 -11t-18 -51
v-31h361v-547q0 -51 -11 -85t-32.5 -55t-54 -30t-74.5 -9q-39 0 -63 4.5t-35 9.5v131q24 -11 56 -11q29 0 41.5 12.5t12.5 42.5v404h-201v-407h-160v407h-200v-407h-160v407zM832 699q0 33 21 54.5t69 21.5q51 0 71.5 -21.5t20.5 -54.5q0 -32 -20.5 -55t-71.5 -23
q-49 0 -69.5 23t-20.5 55z" />
    <glyph glyph-name="f_f_k" horiz-adv-x="1404" 
d="M124 407h-91v133h92v48q0 48 10.5 82t34.5 55.5t62.5 31.5t94.5 10q41 0 65 -3t45 -8v-133q-9 3 -27 6.5t-51 3.5q-39 0 -57 -11t-18 -51v-31h201v48q0 48 11 82t35 55.5t62.5 31.5t93.5 10q54 0 89.5 -2.5t68.5 -4.5h159v-411h48l139 194h179l-190 -256l209 -287h-183
l-154 214h-48v-214h-159v627q-28 2 -58.5 4t-66.5 2q-39 0 -57 -11t-19 -51v-31h126v-133h-126v-407h-160v407h-200v-407h-160v407z" />
    <glyph glyph-name="f_h" horiz-adv-x="1085" 
d="M485 627q-28 2 -58.5 4t-66.5 2q-39 0 -57 -11t-19 -51v-31h126v-133h-126v-407h-160v407h-91v133h92v48q0 48 11 82t35 55.5t62.5 31.5t93.5 10q54 0 89.5 -2.5t68.5 -4.5h159v-295q43 89 182 89q102 0 146.5 -48t44.5 -152v-354h-160v318q0 57 -22.5 80.5t-79.5 23.5
q-61 0 -86 -28.5t-25 -89.5v-304h-159v627z" />
    <glyph glyph-name="f_j" horiz-adv-x="725" 
d="M472 699q0 33 21 54.5t69 21.5q51 0 71.5 -21.5t20.5 -54.5q0 -32 -20.5 -55t-71.5 -23q-49 0 -69.5 23t-20.5 55zM485 407h-201v-407h-160v407h-91v133h92v48q0 48 10.5 82t34.5 55.5t62 31.5t92 10q27 0 50.5 -3.5t40.5 -5.5v-133q-11 2 -25.5 5t-33.5 3q-37 0 -54 -11
t-18 -51v-31h361v-547q0 -51 -11 -85t-32.5 -55t-54 -30t-74.5 -9q-39 0 -63 4.5t-35 9.5v131q24 -11 56 -11q29 0 41.5 12.5t12.5 42.5v404z" />
    <glyph glyph-name="f_k" horiz-adv-x="1044" 
d="M644 760v-411h48l139 191h179l-190 -253l209 -287h-183l-154 214h-48v-214h-159v627q-28 2 -58.5 4t-66.5 2q-39 0 -57 -11t-19 -51v-31h126v-133h-126v-407h-160v407h-91v133h92v48q0 48 11 82t35 55.5t62.5 31.5t93.5 10q54 0 89.5 -2.5t68.5 -4.5h159z" />
    </font>
</defs>
</svg>
